Today is free to download without increasing Download
 

Online

andrew6572

Longevity:
7 years
Posts:
6096

-Мария Гулегина - Passion of Rachmaninov
-Жанр: Vocal
Год издания диска: 2007
Издатель (лейбл): NG Productions
Дата записи: 15.01.2007
Аудиокодек: APE
Тип рипа: image+.cue
Битрейт аудио: lossless
Продолжительность: 56:09-Треклист:
Vocalise (6:34)
O net, molju ne uhodi! (2:09)
Ne poy krasavica, pri mne (4:34)
Davno l', moy drug (2:05)
Poljubila ja na pechal' svoju (2:41)
Molitva (3:12)
Ja zhdu tebja (1:52)
Ostrovok (2:07)
Ne ver' mne, drug (1:53)
O ne grusti po mne (3:26)
Vesennije vody (2:24)
Pora! Javis', prorok! (1:54)
Siren' (2:05)
Otryvok iz A. Mjusse (2:19)
Zdes' horosho (2:14)
Ya B' umeret' hotel - Melodia (3:32)
Ya ne prorok (1:27)
Kak mne bol'no (1:58)
Hristos voskress (3:05)
Cheremuha - U moego okna (2:13)
Noch' pechal'na (2:16)
Исполнители:
Piano accompaniment by Ivari Ilya-

Лог создания рипа

Exact Audio Copy V1.0 beta 1 from 15. November 2010
EAC extraction logfile from 5. March 2011, 21:51
Unknown Artist / Unknown Title
Used drive : MATSHITADVD-RAM UJ-850S Adapter: 0 ID: 0
Read mode : Burst
Read offset correction : 0
Overread into Lead-In and Lead-Out : No
Fill up missing offset samples with silence : Yes
Delete leading and trailing silent blocks : No
Null samples used in CRC calculations : Yes
Used interface : Native Win32 interface for Win NT & 2000
Used output format : Internal WAV Routines
Sample format : 44.100 Hz; 16 Bit; Stereo
TOC of the extracted CD
Track | Start | Length | Start sector | End sector
---------------------------------------------------------
1 | 0:00.00 | 6:36.61 | 0 | 29760
2 | 6:36.61 | 2:11.49 | 29761 | 39634
3 | 8:48.35 | 4:36.68 | 39635 | 60402
4 | 13:25.28 | 2:08.02 | 60403 | 70004
5 | 15:33.30 | 2:43.59 | 70005 | 82288
6 | 18:17.14 | 3:14.36 | 82289 | 96874
7 | 21:31.50 | 1:54.14 | 96875 | 105438
8 | 23:25.64 | 2:09.21 | 105439 | 115134
9 | 25:35.10 | 1:55.23 | 115135 | 123782
10 | 27:30.33 | 3:28.10 | 123783 | 139392
11 | 30:58.43 | 2:26.21 | 139393 | 150363
12 | 33:24.64 | 1:56.21 | 150364 | 159084
13 | 35:21.10 | 2:07.33 | 159085 | 168642
14 | 37:28.43 | 2:21.54 | 168643 | 179271
15 | 39:50.22 | 2:16.36 | 179272 | 189507
16 | 42:06.58 | 3:35.01 | 189508 | 205633
17 | 45:41.59 | 1:29.19 | 205634 | 212327
18 | 47:11.03 | 2:00.69 | 212328 | 221396
19 | 49:11.72 | 3:07.07 | 221397 | 235428
20 | 52:19.04 | 2:15.13 | 235429 | 245566
21 | 54:34.17 | 2:16.63 | 245567 | 255829
Range status and errors
Selected range
Filename D:\Гулегина Рахманинов.wav
Timing problem 0:52:33
Timing problem 0:52:56
Peak level 100.0 %
Extraction speed 0.2 X
Test CRC 5E81C7D7
Copy CRC 5E81C7D7
Copy finished
No errors occurred
End of status report
-

_________________
"Любая война – всего лишь трусливое бегство от проблем мирного времени." Томас Манн.
[Profile] [PM]
Display posts from previous:    

The time now is: Today 12:37

All times are GMT + 3 Hours



You cannot post new topics in this forum
You cannot reply to topics in this forum
You cannot edit your posts in this forum
You cannot delete your posts in this forum
You cannot vote in polls in this forum
You cannot attach files in this forum
You cannot download files in this forum