Золотые дни идет свободное скачивание без начисления Download
 

Офлайн

andrew6572

Стаж:
5 лет 8 месяцев
Сообщений:
5892

Blue Stone / Pandora's Box
Жанр: New Age
Страна-производитель диска: USA
Год издания диска: 2011
Издатель (лейбл): Neurodisc Records
Номер по каталогу: NRO 32108
Страна: Fort Lauderdale, Fl | Asheville, NC
Аудиокодек: FLAC (*.flac)
Тип рипа: tracks+.cue
Битрейт аудио: lossless
Продолжительность: 00:56:38
Источник (релизер): balle_shava
Наличие сканов в содержимом раздачи: да
Треклист:
01. Innocence (04:57)
02. Mischief (05:44)
03. Seduction (05:43)
04. Epimetheus (05:47)
05. Curiosity (05:10)
06. Darkened Rooms (06:17)
07. Who Are You (05:23)
08. The Journey (04:45)
09. Stolen Light (04:48)
10. Shattered (04:38)
11. Hope (03:23)

Лог создания рипа

Exact Audio Copy V1.0 beta 2 from 29. April 2011
Отчёт EAC об извлечении, выполненном 28. августа 2011, 17:13
Blue Stone / Pandora's Box
Дисковод: TSSTcorpCDDVDW SE-S084D Adapter: 1 ID: 0
Режим чтения : Достоверность
Использование точного потока : Да
Отключение кэша аудио : Да
Использование указателей C2 : Нет
Коррекция смещения при чтении : 6
Способность читать области Lead-in и Lead-out : Нет
Заполнение пропущенных сэмплов тишиной : Да
Удаление блоков с тишиной в начале и конце : Нет
При вычислениях CRC использовались нулевые сэмплы : Да
Интерфейс : Встроенный Win32-интерфейс для Win NT/2000
Обработка зазоров : Добавлено к предыдущему треку
Выходной формат : Пользовательский кодировщик
Выбранный битрейт : 896 kBit/s
Качество : Высокий
Добавление ID3-тега : Да
Утилита сжатия : C:\Program Files\Exact Audio Copy\Flac\flac.exe
Дополнительные параметры : -V -8 -T "Genre=%genre%" -T "Artist=%artist%" -T "Title=%title%" -T "Album=%albumtitle%" -T "Date=%year%" -T "Tracknumber=%tracknr%" -T "Comment=%comment%" %source%
TOC извлечённого CD
Трек | Старт | Длительность | Начальный сектор | Конечный сектор
---------------------------------------------------------------------
1 | 0:00.00 | 4:57.49 | 0 | 22323
2 | 4:57.49 | 5:44.37 | 22324 | 48160
3 | 10:42.11 | 5:42.71 | 48161 | 73881
4 | 16:25.07 | 5:47.49 | 73882 | 99955
5 | 22:12.56 | 5:10.53 | 99956 | 123258
6 | 27:23.34 | 6:17.05 | 123259 | 151538
7 | 33:40.39 | 5:23.21 | 151539 | 175784
8 | 39:03.60 | 4:45.16 | 175785 | 197175
9 | 43:49.01 | 4:48.01 | 197176 | 218776
10 | 48:37.02 | 4:38.25 | 218777 | 239651
11 | 53:15.27 | 3:23.47 | 239652 | 254923
Трек 1
Имя файла C:\Users\Turbulence\Music\Blue Stone - Pandora's Box\01. Innocence.wav
Длина предзазора 0:00:02.00
Пиковый уровень 99.9 %
Скорость извлечения 3.1 X
Качество трека 100.0 %
CRC теста 9DF49A46
CRC копии 9DF49A46
Точное извлечение (достоверность 2) [79C32492] (AR v1)
Копирование... OK
Трек 2
Имя файла C:\Users\Turbulence\Music\Blue Stone - Pandora's Box\02. Mischief.wav
Длина предзазора 0:00:02.00
Пиковый уровень 99.9 %
Скорость извлечения 3.5 X
Качество трека 100.0 %
CRC теста 2D17882A
CRC копии 2D17882A
Точное извлечение (достоверность 2) [174AF9BE] (AR v1)
Копирование... OK
Трек 3
Имя файла C:\Users\Turbulence\Music\Blue Stone - Pandora's Box\03. Seduction.wav
Длина предзазора 0:00:02.00
Пиковый уровень 99.9 %
Скорость извлечения 3.5 X
Качество трека 99.9 %
CRC теста 2C7B0E0A
CRC копии 2C7B0E0A
Точное извлечение (достоверность 2) [91B4D7B4] (AR v1)
Копирование... OK
Трек 4
Имя файла C:\Users\Turbulence\Music\Blue Stone - Pandora's Box\04. Epimetheus.wav
Длина предзазора 0:00:02.00
Пиковый уровень 99.9 %
Скорость извлечения 4.2 X
Качество трека 100.0 %
CRC теста A2DFE140
CRC копии A2DFE140
Точное извлечение (достоверность 2) [B8D40058] (AR v1)
Копирование... OK
Трек 5
Имя файла C:\Users\Turbulence\Music\Blue Stone - Pandora's Box\05. Curiosity.wav
Длина предзазора 0:00:02.00
Пиковый уровень 99.9 %
Скорость извлечения 4.5 X
Качество трека 100.0 %
CRC теста DB4D6768
CRC копии DB4D6768
Точное извлечение (достоверность 2) [B9FCCF24] (AR v1)
Копирование... OK
Трек 6
Имя файла C:\Users\Turbulence\Music\Blue Stone - Pandora's Box\06. Darkened Rooms.wav
Длина предзазора 0:00:02.00
Пиковый уровень 99.9 %
Скорость извлечения 4.8 X
Качество трека 100.0 %
CRC теста 9EF04546
CRC копии 9EF04546
Точное извлечение (достоверность 2) [2441071B] (AR v1)
Копирование... OK
Трек 7
Имя файла C:\Users\Turbulence\Music\Blue Stone - Pandora's Box\07. Who Are You.wav
Длина предзазора 0:00:02.00
Пиковый уровень 99.9 %
Скорость извлечения 5.0 X
Качество трека 100.0 %
CRC теста 7D326F01
CRC копии 7D326F01
Точное извлечение (достоверность 2) [CFA703BD] (AR v1)
Копирование... OK
Трек 8
Имя файла C:\Users\Turbulence\Music\Blue Stone - Pandora's Box\08. The Journey.wav
Длина предзазора 0:00:02.00
Пиковый уровень 99.9 %
Скорость извлечения 4.6 X
Качество трека 99.9 %
CRC теста 84AF7961
CRC копии 84AF7961
Точное извлечение (достоверность 2) [61DC985B] (AR v1)
Копирование... OK
Трек 9
Имя файла C:\Users\Turbulence\Music\Blue Stone - Pandora's Box\09. Stolen Light.wav
Длина предзазора 0:00:02.00
Пиковый уровень 99.9 %
Скорость извлечения 5.4 X
Качество трека 100.0 %
CRC теста 18FE4BD4
CRC копии 18FE4BD4
Точное извлечение (достоверность 2) [92885190] (AR v1)
Копирование... OK
Трек 10
Имя файла C:\Users\Turbulence\Music\Blue Stone - Pandora's Box\10. Shattered.wav
Длина предзазора 0:00:02.00
Пиковый уровень 99.9 %
Скорость извлечения 5.6 X
Качество трека 100.0 %
CRC теста 734531F8
CRC копии 734531F8
Точное извлечение (достоверность 2) [2AD2BF73] (AR v1)
Копирование... OK
Трек 11
Имя файла C:\Users\Turbulence\Music\Blue Stone - Pandora's Box\11. Hope.wav
Длина предзазора 0:00:02.00
Пиковый уровень 98.4 %
Скорость извлечения 5.4 X
Качество трека 100.0 %
CRC теста 27B7790F
CRC копии 27B7790F
Точное извлечение (достоверность 2) [EDA91563] (AR v1)
Копирование... OK
Все треки извлечены точно
Ошибок не произошло
Конец отчёта
==== Контрольная сумма отчёта 2D396DC203EE6CC99AFA90EAE84973B6A40B6944A1B921D6C72A33C962890A38 ====

Содержание индексной карты (.CUE)

REM GENRE "New Age"
REM DATE 2011
REM DISCID A00D460B
REM COMMENT "ExactAudioCopy v1.0b2"
PERFORMER "Blue Stone"
TITLE "Pandora's Box"
FILE "01. Innocence.wav" WAVE
TRACK 01 AUDIO
TITLE "Innocence "
PERFORMER "Blue Stone"
INDEX 01 00:00:00
FILE "02. Mischief.wav" WAVE
TRACK 02 AUDIO
TITLE "Mischief "
PERFORMER "Blue Stone"
INDEX 00 00:00:00
INDEX 01 00:02:00
FILE "03. Seduction.wav" WAVE
TRACK 03 AUDIO
TITLE "Seduction "
PERFORMER "Blue Stone"
INDEX 00 00:00:00
INDEX 01 00:02:00
FILE "04. Epimetheus.wav" WAVE
TRACK 04 AUDIO
TITLE "Epimetheus "
PERFORMER "Blue Stone"
INDEX 00 00:00:00
INDEX 01 00:02:00
FILE "05. Curiosity.wav" WAVE
TRACK 05 AUDIO
TITLE "Curiosity "
PERFORMER "Blue Stone"
INDEX 00 00:00:00
INDEX 01 00:02:00
FILE "06. Darkened Rooms.wav" WAVE
TRACK 06 AUDIO
TITLE "Darkened Rooms"
PERFORMER "Blue Stone"
INDEX 00 00:00:00
INDEX 01 00:02:00
FILE "07. Who Are You.wav" WAVE
TRACK 07 AUDIO
TITLE "Who Are You"
PERFORMER "Blue Stone"
INDEX 00 00:00:00
INDEX 01 00:02:00
FILE "08. The Journey.wav" WAVE
TRACK 08 AUDIO
TITLE "The Journey"
PERFORMER "Blue Stone"
INDEX 00 00:00:00
INDEX 01 00:02:00
FILE "09. Stolen Light.wav" WAVE
TRACK 09 AUDIO
TITLE "Stolen Light"
PERFORMER "Blue Stone"
INDEX 00 00:00:00
INDEX 01 00:02:00
FILE "10. Shattered.wav" WAVE
TRACK 10 AUDIO
TITLE "Shattered"
PERFORMER "Blue Stone"
INDEX 00 00:00:00
INDEX 01 00:02:00
FILE "11. Hope.wav" WAVE
TRACK 11 AUDIO
TITLE "Hope "
PERFORMER "Blue Stone"
INDEX 00 00:00:00
INDEX 01 00:02:00

_________________
"Любая война – всего лишь трусливое бегство от проблем мирного времени." Томас Манн.
[Профиль] [ЛС]

Офлайн

sacuruz

Стаж:
11 дней
Сообщений:
4

а где торрент файл
[Профиль] [ЛС]

Офлайн

sacuruz

Стаж:
11 дней
Сообщений:
4

СПАСИБО ЗА КРАСИВУЮ МУЗЫКУ Респект Респект Респект Респект Респект Респект Респект
[Профиль] [ЛС]

Офлайн

sacuruz

Стаж:
11 дней
Сообщений:
4

СПАСИБО ЗА КРАСИВУЮ МУЗЫКУ Респект
[Профиль] [ЛС]
Показать сообщения:    

Текущее время: Сегодня 04:31

Часовой пояс: GMT + 3



Вы не можете начинать темы
Вы не можете отвечать на сообщения
Вы не можете редактировать свои сообщения
Вы не можете удалять свои сообщения
Вы не можете голосовать в опросах
Вы не можете прикреплять файлы к сообщениям
Вы не можете скачивать файлы