Today is free to download without increasing Download
 

Online

Cool2013

Longevity:
5 years 11 months
Posts:
608

Последний рубеж / Homefront
«На что ты готов ради защиты своей семьи?»
- Год выпуска: 2013
Страна: США
Жанр: боевик, криминал
Продолжительность: 01:40:34
Перевод: Дублированный (центральный канал с Line)
Оригинальная аудиодорожка: Есть
Cубтитры: Русские, Английские
Режиссёр: Гэри Фледер
Сценарий: Сильвестр Сталлоне, Чак Логан
Продюсер: Сильвестр Сталлоне, Кевин Кинг Темплтон, Джон Томпсон
Оператор: Тео ван де Санде
Композитор: Марк Айшем
Художник: Грег Берри, А. Тодд Холлэнд, Келли Джонс
Монтаж: Падрейк МакКинли
В ролях: Джейсон Стэйтем, Джеймс Франко, Изабела Видович, Вайнона Райдер, Кейт Босворт, Клэнси Браун, Рашель Лефевр, Омар Бенсон Миллер, Маркус Хестер, Фрэнк Грилло
Бюджет: $22 000 000
Сборы в США: $20 158 898
Сборы в мире: + $11 200 000 = $31 358 898
Сборы в России: $2 694 446
Мировая премьера: 27 ноября 2013
Премьера (РФ): 28 ноября 2013, «Наше Кино»

Описание: Фил Брокер — бывший агент из отдела борьбы с наркотиками. Фил переезжает в небольшой город вместе с семьей в надежде забыть прошлое. Но он узнает, что город только со стороны кажется тихим и спокойным местом, на самом деле он кишит насилием, наркотиками, а всем этим заправляет злодей по кличке Аллигатор…-Качество исходника: BDRemux
Качество: BDRip
Тип: HD (1080p)
Контейнер: M4V
Видео: H.264, 1920x800, 2.40:1, 8 000 Kbps, 23.976 fps
Аудио 1: Русский/Дублированный (Line), AAC / 2.0 / 157 Kbps / 48.0 KHz
Аудио 2: Английский/Оригинальная дорожка , AAC / 2.0 / 158 Kbps / 48.0 KHz
Аудио 3: Русский/Дублированный (Line), AC-3 / 5.1 / 640 Kbps / 48.0 KHz
Аудио 4: Английский/Оригинальная дорожка , AC-3 / 5.1 / 640 Kbps / 48.0 KHz
Язык субтитров: Русский, Английский
Вид субтитров: Вшитые (полные, отключаемые)-

iTunes Meta Tags

Код:
Sort Name: Homefront
XID: Apple:vendor_id:2013-683766
contentID: 779582069
Copyright: © 2013 Open Road Films. All Rights Reserved.
Screenwriters: Сильвестр Сталлоне, Чак Логан
Producers: Боаз Дэвидсон, Марк Гилл, Ави Лернер
Director: Гэри Фледер
Cast: Джейсон Стэйтем, Джеймс Франко, Изабела Видович, Вайнона Райдер, Кейт Босворт, Клэнси Браун, Рашель Лефевр, Омар Бенсон Миллер, Маркус Хестер, Фрэнк Грилло, Владимир Зайцев, Наталья Грачева, Людмила Шувалова, Игорь Старосельцев, Ирина Киреева
Studio: Open Road Films
Rating: 11
Long Description: Фил Брокер - бывший агент из отдела борьбы с наркотиками. Фил переезжает в небольшой город вместе с семьей в надежде забыть прошлое. Но он узнает, что город только со стороны кажется тихим и спокойным местом, на самом деле он кишит насилием, наркотиками, а всем этим заправляет злодей по кличке Аллигатор...
Description: Фил Брокер - бывший агент из отдела борьбы с наркотиками. Фил переезжает в небольшой город вместе с семьей в надежде забыть прошлое.
Release Date: 2013-11-27T08:00:00Z
Genre: Action & Adventure
Artist: Gary Fleder
Name: Homefront (2013)

MediaInfo

Код:
General
Complete name                            : /Users/imac/HandBrake/Homefront (2013) (1080p HD).m4v
Format                                   : MPEG-4
Codec ID                                 : M4V
File size                                : 6.74 GiB
Duration                                 : 1h 40mn
Overall bit rate mode                    : Variable
Overall bit rate                         : 9 594 Kbps
Movie name                               : Homefront (2013)
Performer                                : Gary Fleder
Genre                                    : Action & Adventure
Recorded date                            : UTC 2013-11-27 08:00:00
Encoded date                             : UTC 2014-03-09 13:14:04
Tagged date                              : UTC 2014-03-09 13:35:20
Copyright                                : © 2013 Open Road Films. All Rights Reserved.
Cover                                    : Yes
sonm                                     : Homefront
desc                                     : Фил Брокер - бывший агент из отдела борьбы с наркотиками. Фил переезжает в небольшой город вместе с семьей в надежде забыть прошлое.
ldes                                     : Фил Брокер - бывший агент из отдела борьбы с наркотиками. Фил переезжает в небольшой город вместе с семьей в надежде забыть прошлое. Но он узнает, что город только со стороны кажется тихим и спокойным местом, на самом деле он кишит насилием, наркотиками, а всем этим заправляет злодей по кличке Аллигатор...
hdvd                                     : 2
stik                                     : 9
rtng                                     : 0
cnID                                     : 779582069
xid                                      : Apple:vendor_id:2013-683766
iTunEXTC                                 : mpaa|R|400|
iTunMOVI                                 :  /  /  /  /   cast /    /      /       name /       Джейсон Стэйтем /      /      /       name /       Джеймс Франко /      /      /       name /       Изабела Видович /      /      /       name /       Вайнона Райдер /      /      /       name /       Кейт Босворт /      /      /       name /       Клэнси Браун /      /      /       name /       Рашель Лефевр /      /      /       name /       Омар Бенсон Миллер /      /      /       name /       Маркус Хестер /      /      /       name /       Фрэнк Грилло /      /      /       name /       Владимир Зайцев /      /      /       name /       Наталья Грачева /      /      /       name /       Людмила Шувалова /      /      /       name /       Игорь Старосельцев /      /      /       name /       Ирина Киреева /      /    /   directors /    /      /       name /       Гэри Фледер /      /    /   producers /    /      /       name /       Боаз Дэвидсон /      /      /       name /       Марк Гилл /      /      /       name /       Ави Лернер /      /    /   screenwriters /    /      /       name /       Сильвестр Сталлоне /      /      /       name /       Чак Логан /      /    /   studio /   Open Road Films /  /
Video #1
ID                                       : 1
Format                                   : AVC
Format/Info                              : Advanced Video Codec
Format profile                           : [url=mailto:High@L4.0]High@L4.0[/url]
Format settings, CABAC                   : Yes
Format settings, ReFrames                : 4 frames
Codec ID                                 : avc1
Codec ID/Info                            : Advanced Video Coding
Duration                                 : 1h 40mn
Bit rate mode                            : Variable
Bit rate                                 : 8 000 Kbps
Width                                    : 1 920 pixels
Height                                   : 800 pixels
Display aspect ratio                     : 2.40:1
Frame rate mode                          : Variable
Frame rate                               : 23.976 fps
Minimum frame rate                       : 23.810 fps
Maximum frame rate                       : 90 000.000 fps
Color space                              : YUV
Chroma subsampling                       : 4:2:0
Bit depth                                : 8 bits
Scan type                                : Progressive
Bits/(Pixel*Frame)                       : 0.217
Stream size                              : 5.61 GiB (83%)
Writing library                          : x264 core 130 r2273 b3065e6
Encoding settings                        : cabac=1 / ref=4 / deblock=1:0:0 / analyse=0x3:0x133 / me=umh / subme=10 / psy=1 / psy_rd=1.00:0.00 / mixed_ref=1 / me_range=32 / chroma_me=1 / trellis=2 / 8x8dct=1 / cqm=0 / deadzone=21,11 / fast_pskip=1 / chroma_qp_offset=-2 / threads=12 / lookahead_threads=1 / sliced_threads=0 / nr=0 / decimate=1 / interlaced=0 / bluray_compat=0 / constrained_intra=0 / bframes=4 / b_pyramid=2 / b_adapt=2 / b_bias=0 / direct=3 / weightb=1 / open_gop=0 / weightp=2 / keyint=240 / keyint_min=24 / scenecut=40 / intra_refresh=0 / rc_lookahead=40 / rc=2pass / mbtree=0 / bitrate=8000 / ratetol=1.0 / qcomp=0.60 / qpmin=0 / qpmax=69 / qpstep=4 / cplxblur=20.0 / qblur=0.5 / vbv_maxrate=25000 / vbv_bufsize=25000 / nal_hrd=none / ip_ratio=1.40 / pb_ratio=1.30 / aq=1:1.00
Language                                 : English
Encoded date                             : UTC 2014-03-09 13:14:04
Tagged date                              : UTC 2014-03-09 13:19:50
Color primaries                          : BT.709-5, BT.1361, IEC 61966-2-4, SMPTE RP177
Transfer characteristics                 : BT.709-5, BT.1361
Matrix coefficients                      : BT.709-5, BT.1361, IEC 61966-2-4 709, SMPTE RP177
Video #2
ID                                       : 9
Format                                   : JPEG
Codec ID                                 : jpeg
Duration                                 : 1h 40mn
Bit rate mode                            : Variable
Bit rate                                 : 1 074 bps
Width                                    : 640 pixels
Height                                   : 266 pixels
Display aspect ratio                     : 2.40:1
Frame rate mode                          : Variable
Frame rate                               : 0.003 fps
Minimum frame rate                       : 0.002 fps
Maximum frame rate                       : 0.006 fps
Color space                              : YUV
Chroma subsampling                       : 4:2:0
Bit depth                                : 8 bits
Compression mode                         : Lossy
Bits/(Pixel*Frame)                       : 2.103
Stream size                              : 874 KiB (0%)
Language                                 : English
Encoded date                             : UTC 2014-03-09 13:19:59
Tagged date                              : UTC 2014-03-09 13:19:59
Audio #1
ID                                       : 2
Format                                   : AAC
Format/Info                              : Advanced Audio Codec
Format profile                           : LC
Codec ID                                 : 40
Duration                                 : 1h 40mn
Bit rate mode                            : Variable
Bit rate                                 : 157 Kbps
Maximum bit rate                         : 261 Kbps
Channel(s)                               : 2 channels
Channel positions                        : Front: L R
Sampling rate                            : 48.0 KHz
Compression mode                         : Lossy
Stream size                              : 113 MiB (2%)
Language                                 : Russian
Encoded date                             : UTC 2014-03-09 13:14:04
Tagged date                              : UTC 2014-03-09 13:14:09
Audio #2
ID                                       : 3
Format                                   : AAC
Format/Info                              : Advanced Audio Codec
Format profile                           : LC
Codec ID                                 : 40
Duration                                 : 1h 40mn
Bit rate mode                            : Variable
Bit rate                                 : 158 Kbps
Maximum bit rate                         : 238 Kbps
Channel(s)                               : 2 channels
Channel positions                        : Front: L R
Sampling rate                            : 48.0 KHz
Compression mode                         : Lossy
Stream size                              : 114 MiB (2%)
Language                                 : English
Encoded date                             : UTC 2014-03-09 13:14:04
Tagged date                              : UTC 2014-03-09 13:17:07
Audio #3
ID                                       : 4
Format                                   : AC-3
Format/Info                              : Audio Coding 3
Mode extension                           : CM (complete main)
Format settings, Endianness              : Big
Codec ID                                 : ac-3
Duration                                 : 1h 40mn
Bit rate mode                            : Constant
Bit rate                                 : 640 Kbps
Channel(s)                               : 6 channels
Channel positions                        : Front: L C R, Side: L R, LFE
Sampling rate                            : 48.0 KHz
Bit depth                                : 16 bits
Compression mode                         : Lossy
Stream size                              : 460 MiB (7%)
Language                                 : Russian
Encoded date                             : UTC 2014-03-09 13:14:04
Tagged date                              : UTC 2014-03-09 13:15:12
Audio #4
ID                                       : 5
Format                                   : AC-3
Format/Info                              : Audio Coding 3
Mode extension                           : CM (complete main)
Format settings, Endianness              : Big
Codec ID                                 : ac-3
Duration                                 : 1h 40mn
Bit rate mode                            : Constant
Bit rate                                 : 640 Kbps
Channel(s)                               : 6 channels
Channel positions                        : Front: L C R, Side: L R, LFE
Sampling rate                            : 48.0 KHz
Bit depth                                : 16 bits
Compression mode                         : Lossy
Stream size                              : 460 MiB (7%)
Language                                 : English
Encoded date                             : UTC 2014-03-09 13:14:04
Tagged date                              : UTC 2014-03-09 13:15:12
Text #1
ID                                       : 6
Format                                   : Timed text
Muxing mode                              : sbtl
Codec ID                                 : tx3g
Duration                                 : 1h 35mn
Bit rate mode                            : Variable
Bit rate                                 : 77 bps
Stream size                              : 54.1 KiB (0%)
Language                                 : Russian
Encoded date                             : UTC 2014-03-09 13:14:04
Tagged date                              : UTC 2014-03-09 13:14:04
Text #2
ID                                       : 7
Format                                   : Timed text
Muxing mode                              : sbtl
Codec ID                                 : tx3g
Duration                                 : 1h 35mn
Bit rate mode                            : Variable
Bit rate                                 : 58 bps
Stream size                              : 40.4 KiB (0%)
Language                                 : English
Encoded date                             : UTC 2014-03-09 13:14:04
Tagged date                              : UTC 2014-03-09 13:14:04
Text #3
ID                                       : 8
Format                                   : Apple text
Codec ID                                 : text
Duration                                 : 1h 40mn
Bit rate mode                            : Variable
Bit rate                                 : 1 bps
Stream size                              : 471 Bytes (0%)
Language                                 : English
Encoded date                             : UTC 2014-03-09 13:19:50
Tagged date                              : UTC 2014-03-09 13:19:50
Menu
00:00:00.000                             : Chapter 1
00:04:55.545                             : Chapter 2
00:09:14.262                             : Chapter 3
00:14:56.061                             : Chapter 4
00:21:42.633                             : Chapter 5
00:25:03.166                             : Chapter 6
00:31:23.296                             : Chapter 7
00:34:04.206                             : Chapter 8
00:39:01.169                             : Chapter 9
00:45:48.200                             : Chapter 10
00:49:29.337                             : Chapter 11
00:55:16.559                             : Chapter 12
01:01:55.624                             : Chapter 13
01:08:56.252                             : Chapter 14
01:12:27.713                             : Chapter 15
01:16:01.176                             : Chapter 16
01:19:15.453                             : Chapter 17
01:24:02.698                             : Chapter 18
01:29:39.201                             : Chapter 19
01:35:17.121                             : Chapter 20

x264 лог

Код:
x264 [info]: frame I:1307  Avg QP:17.47  size:204697  PSNR Mean Y:46.33 U:48.40 V:47.34 Avg:46.72 Global:46.00
x264 [info]: frame P:45038 Avg QP:19.17  size: 67088  PSNR Mean Y:45.09 U:48.04 V:46.38 Avg:45.57 Global:44.65
x264 [info]: frame B:98347 Avg QP:21.09  size: 27828  PSNR Mean Y:43.84 U:47.13 V:45.27 Avg:44.35 Global:43.45
x264 [info]: consecutive B-frames:  6.7%  8.3% 19.7% 31.6% 33.7%
x264 [info]: mb I  I16..4:  5.4% 89.2%  5.4%
x264 [info]: mb P  I16..4:  2.4% 16.2%  0.9%  P16..4: 43.3% 18.7% 11.0%  0.1%  0.0%    skip: 7.4%
x264 [info]: mb B  I16..4:  0.2%  1.3%  0.1%  B16..8: 47.9%  9.4%  2.1%  direct: 7.3%  skip:31.7%  L0:44.0% L1:49.5% BI: 6.5%
x264 [info]: 8x8 transform intra:83.8% inter:74.1%
x264 [info]: direct mvs  spatial:98.0% temporal:2.0%
x264 [info]: coded y,uvDC,uvAC intra: 85.5% 90.1% 74.9% inter: 34.0% 39.5% 12.1%
x264 [info]: i16 v,h,dc,p: 44% 13%  8% 35%
x264 [info]: i8 v,h,dc,ddl,ddr,vr,hd,vl,hu:  7%  6%  6% 12% 16% 15% 14% 12% 12%
x264 [info]: i4 v,h,dc,ddl,ddr,vr,hd,vl,hu:  8%  7%  2% 10% 16% 16% 16% 12% 13%
x264 [info]: i8c dc,h,v,p: 49% 16% 15% 20%
x264 [info]: Weighted P-Frames: Y:2.9% UV:1.6%
x264 [info]: ref P L0: 52.3% 10.9% 24.0% 10.0%  2.8%  0.1%
x264 [info]: ref B L0: 82.0% 14.4%  3.6%
x264 [info]: ref B L1: 91.4%  8.6%
x264 [info]: SSIM Mean Y:0.9705417 (15.308db)
x264 [info]: PSNR Mean Y:44.251 U:47.428 V:45.637 Avg:44.749 Global:43.811 kb/s:7988.07
Скриншоты: -

Релиз подготовлен для просмотра на Apple TV, iPad, iPhone, iPod Touch.
Для просмотра данного релиза на компьютере с ОС Windows рекомендуется использовать VLC media player

_________________
[Profile] [PM]
Display posts from previous:    

The time now is: Today 22:12

All times are GMT + 3 Hours



You cannot post new topics in this forum
You cannot reply to topics in this forum
You cannot edit your posts in this forum
You cannot delete your posts in this forum
You cannot vote in polls in this forum
You cannot attach files in this forum
You cannot download files in this forum