Today is free to download without increasing Download
 

Offline

Cool2013

Longevity:
5 years 11 months
Posts:
608

Пираты Карибского моря: На странных берегах / Pirates of the Caribbean: On Stranger Tides
«Live Forever or Die Trying...»- Русское название: Пираты Карибского моря: На странных берегах
Оригинальное название: Pirates of the Caribbean: On Stranger Tides
Год выпуска: 2011
Производство: США
Жанр: Триллер, Приключения, Фэнтези
Режиссер: Роб Маршалл
В ролях: Актеры:Джонни Депп, Пенелопа Крус, Джеффри Раш, Иэн МакШейн, Кевин МакНэлли, Стивен Грэм, Сэм Клафлин, Астрид Берже-Фрисби, Кит Ричардс, Ричард Гриффитс
Кинопоиск:http://www.kinopoisk.ru/film/427076/
IMDB:http://www.imdb.com/title/tt1298650/
Описание фильма: В новой истории о поисках истины, предательстве, вечной молодости и смертельной опасности капитану Джеку Воробью предстоит столкнуться с женщиной из своего прошлого Анжеликой. До самого конца не будет понятно, связывает ли их настоящая любовь, или же Анжелика искусно притворяется, чтобы вместе с Джеком добраться до таинственного источника вечной молодости. Она силой принуждает капитана Джека Воробья взойти на корабль «Месть Королевы Анны», которым управляет коварный злодей Черная Борода. Наш герой оказывается в ситуации, когда он не знает, чего ему бояться больше - ужасного злодея или же свою давнюю подругу.-Продолжительность: 02:16:23
Перевод: профессиональный дублированный
Язык субтитров: Русские, Украинские, Английские
Качество: BDRip 1080p
Формат: MP4 (контейнер m4v)
Видеокодек: MPEG-4 AVC
Аудиокодек: AC3, AAC-Видео : AVC at 12,8 Мбит/сек 1920 x 1080 (1.778) at 23.976 fps
Аудио : AAC at 175 Кбит/сек 2 канала, 48,0 КГц (Русский) Дублированный
Аудио : AC-3 at 640 Кбит/сек 6 каналов, 48,0 КГц (Русский) Дублированный
Аудио : AAC at 184 Кбит/сек 2 канала, 48,0 КГц (Английский) Оригинал
Аудио : AC-3 at 448 Кбит/сек 6 каналов, 48,0 КГц (Английский) Оригинал-

MediaTag

Media Type: Movie HD 1080p
Sort Name: Pirates of the Caribbean: On Stranger Tides
XID: Apple:vendor_id:2011-tt1298650
Content ID: 444528746
ScreenWriters: Тед Эллиот, Терри Россио, Стюарт Битти
Producers: Джерри Брукхаймер, Джон ДеЛюка, Тед Эллиот
Director: Роб Маршалл
Cast: Джонни Депп, Пенелопа Крус, Джеффри Раш, Иэн МакШейн, Кевин МакНэлли, Стивен Грэм, Сэм Клафлин, Астрид Берже-Фрисби, Джемма Уорд, Кит Ричардс, Александр Баргман, Мария Цветкова-Овсянникова, Виктор Костецкий, Юрий Лазарев, Вадим Яковлев
Rating: 12+
Long Description: В новой истории о поисках истины, предательстве, вечной молодости и смертельной опасности капитану Джеку Воробью предстоит столкнуться с женщиной из своего прошлого Анжеликой. До самого конца не будет понятно, связывает ли их настоящая любовь, или же Анжелика искусно притворяется, чтобы вместе с Джеком добраться до таинственного источника вечной молодости. Она силой принуждает капитана Джека Воробья взойти на корабль «Месть Королевы Анны», которым управляет коварный злодей Черная Борода. Наш герой оказывается в ситуации, когда он не знает, чего ему бояться больше — ужасного злодея или же свою давнюю подругу.
Description: В новой истории о поисках истины, предательстве, вечной молодости и смертельной опасности капитану Джеку Воробью предстоит столкнуться с женщиной из своего прошлого Анжеликой. До самого конца не будет понятно, связывает ли их настоящая любовь, или же
Release Date: 2011-05-18T07:00:00Z
Genre: Action & Adventure
Artist: Rob Marshall
Name: Пираты Карибского моря: На странных берегах

MediaInfo

Формат : MPEG-4
Идентификатор кодека : M4V
Размер файла : 13,5 Гбайт
Продолжительность : 2 ч. 16 м.
Режим общего битрейта : Переменный
Общий поток : 14,2 Мбит/сек
Название фильма : Пираты Карибского моря: На странных берегах
Исполнитель : Rob Marshall
Жанр : Action & Adventure
Дата записи : UTC 2011-05-18 07:00:00
Дата кодирования : UTC 2014-03-02 13:57:22
Дата пометки : UTC 2014-03-02 14:24:51
Программа кодирования : MkvToMp4 [www.mkvtomp4.ru] version: 0.224 (x64)
Обложка : Yes
sonm : Pirates of the Caribbean: On Stranger Tides
desc : В новой истории о поисках истины, предательстве, вечной молодости и смертельной опасности капитану Джеку Воробью предстоит столкнуться с женщиной из своего прошлого Анжеликой. До самого конца не будет понятно, связывает ли их настоящая любовь, или же
ldes : В новой истории о поисках истины, предательстве, вечной молодости и смертельной опасности капитану Джеку Воробью предстоит столкнуться с женщиной из своего прошлого Анжеликой. До самого конца не будет понятно, связывает ли их настоящая любовь, или же Анжелика искусно притворяется, чтобы вместе с Джеком добраться до таинственного источника вечной молодости. Она силой принуждает капитана Джека Воробья взойти на корабль «Месть Королевы Анны», которым управляет коварный злодей Черная Борода. Наш герой оказывается в ситуации, когда он не знает, чего ему бояться больше — ужасного злодея или же свою давнюю подругу.
hdvd : 2
stik : 9
cnID : 444528746
xid : Apple:vendor_id:2011-tt1298650
iTunEXTC : ru-movie|12+|200|
iTunMOVI : / / / / cast / / / name / Джонни Депп / / / name / Пенелопа Крус / / / name / Джеффри Раш / / / name / Иэн МакШейн / / / name / Кевин МакНэлли / / / name / Стивен Грэм / / / name / Сэм Клафлин / / / name / Астрид Берже-Фрисби / / / name / Джемма Уорд / / / name / Кит Ричардс / / / name / Александр Баргман / / / name / Мария Цветкова-Овсянникова / / / name / Виктор Костецкий / / / name / Юрий Лазарев / / / name / Вадим Яковлев / / / directors / / / name / Роб Маршалл / / / producers / / / name / Джерри Брукхаймер / / / name / Джон ДеЛюка / / / name / Тед Эллиот / / / screenwriters / / / name / Тед Эллиот / / / name / Терри Россио / / / name / Стюарт Битти / / / /
Видео
Идентификатор : 1
Формат : AVC
Формат/Информация : Advanced Video Codec
Профиль формата : [url=mailto:High@L4.1]High@L4.1[/url]
Параметр CABAC формата : Да
Параметр ReFrames формата : 4 кадра
Идентификатор кодека : avc1
Идентификатор кодека/Информация : Advanced Video Coding
Продолжительность : 2 ч. 16 м.
Битрейт : 12,8 Мбит/сек
Максимальный битрейт : 36,4 Мбит/сек
Ширина : 1920 пикселей
Высота : 800 пикселей
Соотношение сторон : 2,40:1
Режим частоты кадров : Постоянный
Частота кадров : 23,976 кадра/сек
Цветовое пространство : YUV
Субдискретизация насыщенности : 4:2:0
Битовая глубина : 8 бит
Тип развёртки : Прогрессивная
Бит/(Пиксели*Кадры) : 0.346
Размер потока : 12,1 Гбайт (90%)
Заголовок : Release for HDCLUB
Библиотека кодирования : x264 core 116 r2074 2641b9e
Настройки программы : cabac=1 / ref=4 / deblock=1:-2:-2 / analyse=0x3:0x113 / me=umh / subme=10 / psy=1 / psy_rd=1.00:0.00 / mixed_ref=1 / me_range=32 / chroma_me=1 / trellis=2 / 8x8dct=1 / cqm=0 / deadzone=21,11 / fast_pskip=0 / chroma_qp_offset=-2 / threads=12 / sliced_threads=0 / nr=0 / decimate=0 / interlaced=0 / bluray_compat=0 / constrained_intra=0 / bframes=6 / b_pyramid=2 / b_adapt=2 / b_bias=0 / direct=3 / weightb=1 / open_gop=0 / weightp=2 / keyint=250 / keyint_min=23 / scenecut=40 / intra_refresh=0 / rc_lookahead=40 / rc=2pass / mbtree=0 / bitrate=12753 / ratetol=1.0 / qcomp=0.60 / qpmin=0 / qpmax=69 / qpstep=4 / cplxblur=20.0 / qblur=0.5 / vbv_maxrate=50000 / vbv_bufsize=62500 / nal_hrd=none / ip_ratio=1.40 / pb_ratio=1.30 / aq=1:1.00
Язык : English
Дата кодирования : UTC 2014-03-02 13:57:22
Дата пометки : UTC 2014-03-02 14:07:21
Аудио #1
Идентификатор : 2
Формат : AAC
Формат/Информация : Advanced Audio Codec
Профиль формата : LC
Идентификатор кодека : 40
Продолжительность : 2 ч. 16 м.
Вид битрейта : Переменный
Битрейт : 175 Кбит/сек
Максимальный битрейт : 228 Кбит/сек
Каналы : 2 канала
Расположение каналов : Front: L R
Частота : 48,0 КГц
Метод сжатия : С потерями
Размер потока : 171 Мбайт (1%)
Заголовок : AAC 32_1
Язык : Russian
Дата кодирования : UTC 2014-03-02 12:36:07
Дата пометки : UTC 2014-03-02 14:07:21
Аудио #2
Идентификатор : 3
Формат : AC-3
Формат/Информация : Audio Coding 3
Расширение режима : CM (complete main)
Параметр Endianness формата : Big
Идентификатор кодека : ac-3
Продолжительность : 2 ч. 16 м.
Вид битрейта : Постоянный
Битрейт : 640 Кбит/сек
Каналы : 6 каналов
Расположение каналов : Front: L C R, Side: L R, LFE
Частота : 48,0 КГц
Битовая глубина : 16 бит
Метод сжатия : С потерями
Размер потока : 624 Мбайт (5%)
Заголовок : AC3 32_1
Язык : Russian
Дата кодирования : UTC 2014-03-02 14:05:53
Дата пометки : UTC 2014-03-02 14:07:21
Аудио #3
Идентификатор : 4
Формат : AAC
Формат/Информация : Advanced Audio Codec
Профиль формата : LC
Идентификатор кодека : 40
Продолжительность : 2 ч. 16 м.
Вид битрейта : Переменный
Битрейт : 184 Кбит/сек
Максимальный битрейт : 234 Кбит/сек
Каналы : 2 канала
Расположение каналов : Front: L R
Частота : 48,0 КГц
Метод сжатия : С потерями
Размер потока : 179 Мбайт (1%)
Заголовок : AAC 32_1
Язык : English
Дата кодирования : UTC 2014-03-02 13:53:35
Дата пометки : UTC 2014-03-02 14:07:21
Аудио #4
Идентификатор : 5
Формат : AC-3
Формат/Информация : Audio Coding 3
Расширение режима : CM (complete main)
Параметр Endianness формата : Big
Идентификатор кодека : ac-3
Продолжительность : 2 ч. 16 м.
Вид битрейта : Постоянный
Битрейт : 448 Кбит/сек
Каналы : 6 каналов
Расположение каналов : Front: L C R, Side: L R, LFE
Частота : 48,0 КГц
Битовая глубина : 16 бит
Метод сжатия : С потерями
Размер потока : 437 Мбайт (3%)
Заголовок : AC3 32_1
Язык : English
Дата кодирования : UTC 2014-03-02 14:06:45
Дата пометки : UTC 2014-03-02 14:07:21
Текст #1
Идентификатор : 6
Формат : Timed Text
Режим смешивания : sbtl
Идентификатор кодека : tx3g
Продолжительность : 2 ч. 8 м.
Вид битрейта : Переменный
Битрейт : 0 бит/сек
Размер потока : 342 байт (0%)
Язык : Russian
Дата кодирования : UTC 2014-03-02 14:07:21
Дата пометки : UTC 2014-03-02 14:07:21
Текст #2
Идентификатор : 7
Формат : Timed Text
Режим смешивания : sbtl
Идентификатор кодека : tx3g
Продолжительность : 2 ч. 8 м.
Вид битрейта : Переменный
Битрейт : 83 бит/сек
Размер потока : 78,6 Кбайт (0%)
Язык : Russian
Дата кодирования : UTC 2014-03-02 14:07:21
Дата пометки : UTC 2014-03-02 14:07:21
Текст #3
Идентификатор : 8
Формат : Timed Text
Режим смешивания : sbtl
Идентификатор кодека : tx3g
Продолжительность : 2 ч. 8 м.
Вид битрейта : Переменный
Битрейт : 0 бит/сек
Размер потока : 321 байт (0%)
Язык : Ukrainian
Дата кодирования : UTC 2014-03-02 14:07:21
Дата пометки : UTC 2014-03-02 14:07:21
Текст #4
Идентификатор : 9
Формат : Timed Text
Режим смешивания : sbtl
Идентификатор кодека : tx3g
Продолжительность : 2 ч. 8 м.
Вид битрейта : Переменный
Битрейт : 73 бит/сек
Размер потока : 68,9 Кбайт (0%)
Язык : Ukrainian
Дата кодирования : UTC 2014-03-02 14:07:21
Дата пометки : UTC 2014-03-02 14:07:21
Текст #5
Идентификатор : 10
Формат : Timed Text
Режим смешивания : sbtl
Идентификатор кодека : tx3g
Продолжительность : 2 ч. 7 м.
Вид битрейта : Переменный
Битрейт : 51 бит/сек
Размер потока : 47,7 Кбайт (0%)
Язык : English
Дата кодирования : UTC 2014-03-02 14:07:21
Дата пометки : UTC 2014-03-02 14:07:21
Меню
Идентификатор : 12
Идентификатор кодека : text
Продолжительность : 2 ч. 16 м.
Дата кодирования : UTC 2014-03-02 14:24:51
Дата пометки : UTC 2014-03-02 14:24:51
Вид битрейта : CBR
-

_________________
[Profile] [PM]
Display posts from previous:    

The time now is: Today 08:42

All times are GMT + 3 Hours



You cannot post new topics in this forum
You cannot reply to topics in this forum
You cannot edit your posts in this forum
You cannot delete your posts in this forum
You cannot vote in polls in this forum
You cannot attach files in this forum
You cannot download files in this forum