Today is free to download without increasing Download
 

Offline

Cool2013

Longevity:
5 years 11 months
Posts:
608

12 лет рабства / 12 Years a Slave (2013) BDRip [1080p] ATV
«The extraordinary true story of Solomon Northup»- Русское название: 12 лет рабства
Оригинальное название: 12 Years a Slave
Год выпуска: 2013
Производство: США, Великобритания
Жанр: драма, биография, история
Режиссер: Стив МакКуин
В ролях: Чиветель Эджиофор, Майкл Фассбендер, Бенедикт Камбербэтч, Пол Дано, Пол Джаматти, Лупита Нионго, Сара Полсон, Брэд Питт, Элфри Вудард, Куавенжаней Уоллис
Кинопоиск: http://www.kinopoisk.ru/film/606646/
IBDB: http://www.imdb.com/title/tt2024544/
Описание фильма: Соломон Нортап был женатым и образованным мужчиной, который жил и работал в Нью-Йорке, когда два человека однажды предложили ему привлекательную работу в Вашингтоне. По прибытии он был похищен, стал рабом и влачил жалкую жизнь, переходя от одного хозяина к другому-Продолжительность: 133 мин. / 02:13
Перевод: профессиональный дублированный
Язык субтитров: рус, англ
Качество: BDRip 1080p
Формат: MP4 (контейнер m4v)
Видеокодек: MPEG-4 AVC
Аудиокодек: AC3, AAC-Видео : AVC at 10,5 Мбит/сек 1920 x 800 (2.400) at 23.976 fps
Аудио : AAC at 144 Кбит/сек 2 канала, 48,0 КГц (Русский) Дублированный
Аудио : AC-3 at 384 Кбит/сек 6 каналов, 48,0 КГц (Русский) Дублированный
Аудио : AAC at 170 Кбит/сек 2 канала, 48,0 КГц (Английский) Оригинал
Аудио : AC-3 at 448 Кбит/сек 6 каналов, 48,0 КГц (Английский) Оригинал-

MediaTag

Media Type: Movie HD 1080p
Sort Name: 12 Years a Slave
XID: Apple:vendor_id:2013-tt2024544
Content ID: 816429319
ScreenWriters: Джон Ридли, Соломон Нортап
Producers: Деде Гарднер, Энтони Катагас, Джереми Клейнер
Director: Стив МакКуин
Cast: Чиветель Эджиофор, Майкл Фассбендер, Бенедикт Камбербэтч, Пол Дано, Пол Джаматти, Лупита Нионго, Сара Полсон, Брэд Питт, Элфри Вудард, Куавенжаней Уоллис
Rating: R
Long Description: Соломон Нортап был женатым и образованным мужчиной, который жил и работал в Нью-Йорке середины 19-го века, когда два человека однажды предложили ему привлекательную работу в Вашингтоне. По прибытии он был похищен, стал рабом и влачил жалкую жизнь на далёком Юге, переходя от одного хозяина к другому.
Description: Соломон Нортап был женатым и образованным мужчиной, который жил и работал в Нью-Йорке середины 19-го века, когда два человека однажды предложили ему привлекательную работу в Вашингтоне. По прибытии он был похищен, стал рабом и влачил жалкую жизнь на
Release Date: 2013-10-18
Genre: драма & история
Artist: Steve McQueen
Name: 12 лет рабства

MediaInfo

Формат : MPEG-4
Идентификатор кодека : M4V
Размер файла : 10,6 Гбайт
Продолжительность : 2 ч. 14 м.
Режим общего битрейта : Переменный
Общий поток : 11,3 Мбит/сек
Название фильма : 12 лет рабства
Исполнитель : Steve McQueen
Жанр : драма & история
Дата записи : 2013-10-18
Дата кодирования : UTC 2014-03-02 20:48:05
Дата пометки : UTC 2014-03-02 21:04:52
Программа кодирования : MkvToMp4 [www.mkvtomp4.ru] version: 0.224 (x64)
Обложка : Yes
sonm : 12 Years a Slave
desc : Соломон Нортап был женатым и образованным мужчиной, который жил и работал в Нью-Йорке середины 19-го века, когда два человека однажды предложили ему привлекательную работу в Вашингтоне. По прибытии он был похищен, стал рабом и влачил жалкую жизнь на
ldes : Соломон Нортап был женатым и образованным мужчиной, который жил и работал в Нью-Йорке середины 19-го века, когда два человека однажды предложили ему привлекательную работу в Вашингтоне. По прибытии он был похищен, стал рабом и влачил жалкую жизнь на далёком Юге, переходя от одного хозяина к другому.
hdvd : 2
stik : 9
cnID : 816429319
xid : Apple:vendor_id:2013-tt2024544
iTunEXTC : mpaa|R|400|
iTunMOVI : / / / / cast / / / name / Чиветель Эджиофор / / / name / Майкл Фассбендер / / / name / Бенедикт Камбербэтч / / / name / Пол Дано / / / name / Пол Джаматти / / / name / Лупита Нионго / / / name / Сара Полсон / / / name / Брэд Питт / / / name / Элфри Вудард / / / name / Куавенжаней Уоллис / / / directors / / / name / Стив МакКуин / / / producers / / / name / Деде Гарднер / / / name / Энтони Катагас / / / name / Джереми Клейнер / / / screenwriters / / / name / Джон Ридли / / / name / Соломон Нортап / / / /
Видео
Идентификатор : 1
Формат : AVC
Формат/Информация : Advanced Video Codec
Профиль формата : [url=mailto:High@L4.1]High@L4.1[/url]
Параметр CABAC формата : Да
Параметр ReFrames формата : 5 кадров
Идентификатор кодека : avc1
Идентификатор кодека/Информация : Advanced Video Coding
Продолжительность : 2 ч. 14 м.
Битрейт : 10,2 Мбит/сек
Максимальный битрейт : 61,3 Мбит/сек
Ширина : 1920 пикселей
Высота : 800 пикселей
Соотношение сторон : 2,40:1
Режим частоты кадров : Постоянный
Частота кадров : 23,976 кадра/сек
Цветовое пространство : YUV
Субдискретизация насыщенности : 4:2:0
Битовая глубина : 8 бит
Тип развёртки : Прогрессивная
Бит/(Пиксели*Кадры) : 0.276
Размер потока : 9,51 Гбайт (90%)
Библиотека кодирования : x264 core 140 r2377 1ca7bb9
Настройки программы : cabac=1 / ref=5 / deblock=1:0:0 / analyse=0x3:0x133 / me=umh / subme=7 / psy=1 / psy_rd=1.00:0.00 / mixed_ref=1 / me_range=16 / chroma_me=1 / trellis=1 / 8x8dct=1 / cqm=0 / deadzone=21,11 / fast_pskip=1 / chroma_qp_offset=-2 / threads=12 / lookahead_threads=2 / sliced_threads=0 / nr=0 / decimate=1 / interlaced=0 / bluray_compat=0 / constrained_intra=0 / bframes=3 / b_pyramid=2 / b_adapt=2 / b_bias=0 / direct=1 / weightb=1 / open_gop=0 / weightp=2 / keyint=250 / keyint_min=23 / scenecut=40 / intra_refresh=0 / rc_lookahead=50 / rc=2pass / mbtree=1 / bitrate=10155 / ratetol=1.0 / qcomp=0.60 / qpmin=0 / qpmax=69 / qpstep=4 / cplxblur=20.0 / qblur=0.5 / ip_ratio=1.40 / aq=1:1.00
Язык : English
Дата кодирования : UTC 2014-03-02 20:48:05
Дата пометки : UTC 2014-03-02 20:55:11
Аудио #1
Идентификатор : 2
Формат : AAC
Формат/Информация : Advanced Audio Codec
Профиль формата : LC
Идентификатор кодека : 40
Продолжительность : 2 ч. 14 м.
Вид битрейта : Переменный
Битрейт : 144 Кбит/сек
Максимальный битрейт : 197 Кбит/сек
Каналы : 2 канала
Расположение каналов : Front: L R
Частота : 48,0 КГц
Метод сжатия : С потерями
Размер потока : 136 Мбайт (1%)
Заголовок : AAC iTunes
Язык : Russian
Дата кодирования : UTC 2014-03-02 19:54:41
Дата пометки : UTC 2014-03-02 20:55:11
Аудио #2
Идентификатор : 3
Формат : AC-3
Формат/Информация : Audio Coding 3
Расширение режима : CM (complete main)
Параметр Endianness формата : Big
Идентификатор кодека : ac-3
Продолжительность : 2 ч. 14 м.
Вид битрейта : Постоянный
Битрейт : 384 Кбит/сек
Каналы : 6 каналов
Расположение каналов : Front: L C R, Side: L R, LFE
Частота : 48,0 КГц
Битовая глубина : 16 бит
Метод сжатия : С потерями
Размер потока : 368 Мбайт (3%)
Заголовок : AC3 iTunes
Язык : Russian
Дата кодирования : UTC 2014-03-02 20:53:59
Дата пометки : UTC 2014-03-02 20:55:11
Аудио #3
Идентификатор : 4
Формат : AAC
Формат/Информация : Advanced Audio Codec
Профиль формата : LC
Идентификатор кодека : 40
Продолжительность : 2 ч. 14 м.
Вид битрейта : Переменный
Битрейт : 170 Кбит/сек
Максимальный битрейт : 242 Кбит/сек
Каналы : 2 канала
Расположение каналов : Front: L R
Частота : 48,0 КГц
Метод сжатия : С потерями
Размер потока : 164 Мбайт (2%)
Язык : English
Дата кодирования : UTC 2014-03-02 20:44:24
Дата пометки : UTC 2014-03-02 20:55:11
Аудио #4
Идентификатор : 5
Формат : AC-3
Формат/Информация : Audio Coding 3
Расширение режима : CM (complete main)
Параметр Endianness формата : Big
Идентификатор кодека : ac-3
Продолжительность : 2 ч. 14 м.
Вид битрейта : Постоянный
Битрейт : 448 Кбит/сек
Каналы : 6 каналов
Расположение каналов : Front: L C R, Side: L R, LFE
Частота : 48,0 КГц
Битовая глубина : 16 бит
Метод сжатия : С потерями
Размер потока : 430 Мбайт (4%)
Язык : English
Дата кодирования : UTC 2014-03-02 20:54:36
Дата пометки : UTC 2014-03-02 20:55:11
Текст #1
Идентификатор : 6
Формат : Timed Text
Режим смешивания : sbtl
Идентификатор кодека : tx3g
Продолжительность : 2 ч. 8 м.
Вид битрейта : Переменный
Битрейт : 67 бит/сек
Размер потока : 63,3 Кбайт (0%)
Язык : Russian
Дата кодирования : UTC 2014-03-02 20:55:11
Дата пометки : UTC 2014-03-02 20:55:11
Текст #2
Идентификатор : 7
Формат : Timed Text
Режим смешивания : sbtl
Идентификатор кодека : tx3g
Продолжительность : 2 ч. 13 м.
Вид битрейта : Переменный
Битрейт : 52 бит/сек
Размер потока : 51,0 Кбайт (0%)
Язык : English
Дата кодирования : UTC 2014-03-02 20:55:11
Дата пометки : UTC 2014-03-02 20:55:11
Меню
Идентификатор : 8
Идентификатор кодека : text
Продолжительность : 2 ч. 14 м.
Дата кодирования : UTC 2014-03-02 21:04:52
Дата пометки : UTC 2014-03-02 21:04:52
Вид битрейта : CBR
-

_________________
[Profile] [PM]

Offline

kuban-10

Longevity:
6 years 7 months
Posts:
1019

Cool2013, У меня боле лучшее качество.

_________________
Релизы от kuban-10
[Profile] [PM]

Offline

Cool2013

Longevity:
5 years 11 months
Posts:
608

Возможно, да... Для телефона пойдет

_________________
[Profile] [PM]
Display posts from previous:    

The time now is: Today 08:34

All times are GMT + 3 Hours



You cannot post new topics in this forum
You cannot reply to topics in this forum
You cannot edit your posts in this forum
You cannot delete your posts in this forum
You cannot vote in polls in this forum
You cannot attach files in this forum
You cannot download files in this forum