Today is free to download without increasing Download
 

Offline

Cool2013

Longevity:
5 years 11 months
Posts:
608

Я, Франкенштейн / I, Frankenstein
«In the battle between good and evil, an immortal holds the key»
- Год выпуска: 2013
Страна: США, Австралия
Жанр: фэнтези, боевик, приключения
Продолжительность: 01:33:10
Перевод: Профессиональный (дублированный)
Оригинальная аудиодорожка: Нет
Режиссёр: Стюарт Битти
Сценарий: Стюарт Битти, Кевин Гревье, Мэри Шелли
Продюсер: Сидни Киммел, Гари Лучези, Эндрю Мэйсон
Оператор: Росс Эмери
Композитор: Райнхольд Хайль, Джонни Клаймек
Художник: Мишель МакГэхи, Брайан Эдмондс, Саймон МакКатчен
Монтаж: Маркус Д’Арси
В ролях: Аарон Экхарт, Ивонн Страховски, Миранда Отто, Билл Найи, Джай Кортни, Сократис Отто, Аден Янг, Кэйтлин Стэйси, Махеш Джаду, Стив Музакис
Бюджет: $65 000 000
Сборы в США: $18 838 000
Сборы в мире: + $49 672 716 = $68 510 716
Сборы в России: $11 651 974
Мировая премьера: 20 января 2014
Премьера (РФ): 23 января 2014, «Двадцатый Век Фокс СНГ», «A Company»
Релиз на DVD: 4 марта 2014, «Lizard Cinema Trade»
Релиз на Blu-Ray: 4 марта 2014, «Lizard Cinema Trade»
Кинопоиск: http://www.kinopoisk.ru/film/461934/
IMDB: http://www.imdb.com/title/tt1418377/
Описание: Он — монстр. Он — двухсотлетний плод безумной фантазии своего создателя. Он — легенда. Мир, в котором он живет, населен древними горгульями и бессмертными демонами, которые сражаются за обладание человечеством. Величественные соборы скрывают огромные арсеналы, за дверьми научных лабораторий проводятся эксперименты по воскрешению мертвых. Война двух кланов могущественных существ достигает своего пика. И только он, Адам, монстр Франкенштейна, в силах ее остановить. -Качество исходника: BDRemux
Качество: BDRip
Тип: HD (1080p)
Контейнер: M4V
Видео: H.264, 1920x800, 2.40:1, 8 000 Kbps, 23.976 fps
Аудио 1: Русский/Профессиональный (дублированный) , AAC / 2.0 / 158 Kbps / 48.0 KHz
Аудио 2: Русский/Профессиональный (дублированный) , AC-3 / 5.1 / 640 Kbps / 48.0 KHz-

iTunes Meta Tags

Код:
Sort Name: Я, Франкенштейн
XID: Apple:vendor_id:2013-461934
contentID: 461934
Screenwriters: Стюарт Битти, Кевин Гревье, Мэри Шелли
Producers: Гари Лучези, Эндрю Мэйсон, Том Розенберг
Director: Стюарт Битти
Cast: Аарон Экхарт, Ивонн Страховски, Билл Найи, Джай Кортни, Кэйтлин Стэйси, Миранда Отто, Кевин Гревье, Аден Янг, Дениз Акдениз, Сократис Отто
Rating: 4
Long Description: Монстр Адам, созданный доктором Франкенштейном, благодаря своим уникальным генам доживает до наших дней. Оказавшись в мрачном готическом метрополисе, он попадает в самую гущу вековой войны между двумя кланами бессмертных существ...
Description: Монстр Адам, созданный доктором Франкенштейном, благодаря своим уникальным генам доживает до наших дней. Оказавшись в мрачном готическом метрополисе, он попадает в самую гущу вековой войны между двумя кланами бессмертных существ...
Release Date: 2014-01-23T08:00:00Z
Genre: Fantasy
Artist: Стюарт Битти
Name: Я, Франкенштейн

MediaInfo

Код:
General
Complete name                            : /Users/imac/HandBrake/I, Frankenstein (1080p HD).m4v
Format                                   : MPEG-4
Codec ID                                 : M4V
File size                                : 5.71 GiB
Duration                                 : 1h 33mn
Overall bit rate mode                    : Variable
Overall bit rate                         : 8 789 Kbps
Movie name                               : Я, Франкенштейн
Performer                                : Стюарт Битти
Genre                                    : Fantasy
Recorded date                            : UTC 2014-01-23 08:00:00
Encoded date                             : UTC 2014-03-03 22:51:55
Tagged date                              : UTC 2014-03-03 23:33:45
Cover                                    : Yes
sonm                                     : Я, Франкенштейн
desc                                     : Монстр Адам, созданный доктором Франкенштейном, благодаря своим уникальным генам доживает до наших дней. Оказавшись в мрачном готическом метрополисе, он попадает в самую гущу вековой войны между двумя кланами бессмертных существ...
ldes                                     : Монстр Адам, созданный доктором Франкенштейном, благодаря своим уникальным генам доживает до наших дней. Оказавшись в мрачном готическом метрополисе, он попадает в самую гущу вековой войны между двумя кланами бессмертных существ...
hdvd                                     : 2
stik                                     : 9
rtng                                     : 0
cnID                                     : 461934
xid                                      : Apple:vendor_id:2013-461934
iTunEXTC                                 : mpaa|PG-13|300|
iTunMOVI                                 :  /  /  /  /   cast /    /      /       name /       Аарон Экхарт /      /      /       name /       Ивонн Страховски /      /      /       name /       Билл Найи /      /      /       name /       Джай Кортни /      /      /       name /       Кэйтлин Стэйси /      /      /       name /       Миранда Отто /      /      /       name /       Кевин Гревье /      /      /       name /       Аден Янг /      /      /       name /       Дениз Акдениз /      /      /       name /       Сократис Отто /      /    /   directors /    /      /       name /       Стюарт Битти /      /    /   producers /    /      /       name /       Гари Лучези /      /      /       name /       Эндрю Мэйсон /      /      /       name /       Том Розенберг /      /    /   screenwriters /    /      /       name /       Стюарт Битти /      /      /       name /       Кевин Гревье /      /      /       name /       Мэри Шелли /      /    /  /
Video #1
ID                                       : 1
Format                                   : AVC
Format/Info                              : Advanced Video Codec
Format profile                           : [url=mailto:High@L4.0]High@L4.0[/url]
Format settings, CABAC                   : Yes
Format settings, ReFrames                : 4 frames
Codec ID                                 : avc1
Codec ID/Info                            : Advanced Video Coding
Duration                                 : 1h 33mn
Bit rate mode                            : Variable
Bit rate                                 : 8 000 Kbps
Width                                    : 1 920 pixels
Height                                   : 800 pixels
Display aspect ratio                     : 2.40:1
Frame rate mode                          : Variable
Frame rate                               : 23.976 fps
Minimum frame rate                       : 23.810 fps
Maximum frame rate                       : 24.272 fps
Color space                              : YUV
Chroma subsampling                       : 4:2:0
Bit depth                                : 8 bits
Scan type                                : Progressive
Bits/(Pixel*Frame)                       : 0.217
Stream size                              : 5.19 GiB (91%)
Writing library                          : x264 core 130 r2273 b3065e6
Encoding settings                        : cabac=1 / ref=4 / deblock=1:0:0 / analyse=0x3:0x133 / me=umh / subme=10 / psy=1 / psy_rd=1.00:0.00 / mixed_ref=1 / me_range=32 / chroma_me=1 / trellis=2 / 8x8dct=1 / cqm=0 / deadzone=21,11 / fast_pskip=1 / chroma_qp_offset=-2 / threads=12 / lookahead_threads=1 / sliced_threads=0 / nr=0 / decimate=1 / interlaced=0 / bluray_compat=0 / constrained_intra=0 / bframes=4 / b_pyramid=2 / b_adapt=2 / b_bias=0 / direct=3 / weightb=1 / open_gop=0 / weightp=2 / keyint=240 / keyint_min=24 / scenecut=40 / intra_refresh=0 / rc_lookahead=40 / rc=2pass / mbtree=0 / bitrate=8000 / ratetol=1.0 / qcomp=0.60 / qpmin=0 / qpmax=69 / qpstep=4 / cplxblur=20.0 / qblur=0.5 / vbv_maxrate=25000 / vbv_bufsize=25000 / nal_hrd=none / ip_ratio=1.40 / pb_ratio=1.30 / aq=1:1.00
Language                                 : English
Encoded date                             : UTC 2014-03-03 22:51:56
Tagged date                              : UTC 2014-03-03 22:55:02
Color primaries                          : BT.709-5, BT.1361, IEC 61966-2-4, SMPTE RP177
Transfer characteristics                 : BT.709-5, BT.1361
Matrix coefficients                      : BT.709-5, BT.1361, IEC 61966-2-4 709, SMPTE RP177
Video #2
ID                                       : 4
Format                                   : JPEG
Codec ID                                 : jpeg
Duration                                 : 1h 33mn
Bit rate mode                            : Variable
Bit rate                                 : 307 bps
Width                                    : 640 pixels
Height                                   : 266 pixels
Display aspect ratio                     : 2.40:1
Frame rate mode                          : Constant
Frame rate                               : 0.001 fps
Color space                              : YUV
Chroma subsampling                       : 4:2:0
Bit depth                                : 8 bits
Compression mode                         : Lossy
Bits/(Pixel*Frame)                       : 1.803
Stream size                              : 300 KiB (0%)
Language                                 : English
Encoded date                             : UTC 2014-03-03 22:51:56
Tagged date                              : UTC 2014-03-03 22:54:17
Audio #1
ID                                       : 2
Format                                   : AAC
Format/Info                              : Advanced Audio Codec
Format profile                           : LC
Codec ID                                 : 40
Duration                                 : 1h 33mn
Bit rate mode                            : Variable
Bit rate                                 : 158 Kbps
Maximum bit rate                         : 231 Kbps
Channel(s)                               : 2 channels
Channel positions                        : Front: L R
Sampling rate                            : 48.0 KHz
Compression mode                         : Lossy
Stream size                              : 105 MiB (2%)
Language                                 : Russian
Encoded date                             : UTC 2014-03-03 22:51:56
Tagged date                              : UTC 2014-03-03 22:55:06
Audio #2
ID                                       : 3
Format                                   : AC-3
Format/Info                              : Audio Coding 3
Mode extension                           : CM (complete main)
Format settings, Endianness              : Big
Codec ID                                 : ac-3
Duration                                 : 1h 33mn
Bit rate mode                            : Constant
Bit rate                                 : 640 Kbps
Channel(s)                               : 6 channels
Channel positions                        : Front: L C R, Side: L R, LFE
Sampling rate                            : 48.0 KHz
Bit depth                                : 16 bits
Compression mode                         : Lossy
Stream size                              : 426 MiB (7%)
Language                                 : Russian
Encoded date                             : UTC 2014-03-03 22:51:56
Tagged date                              : UTC 2014-03-03 22:52:02
Text
ID                                       : 5
Format                                   : Apple text
Codec ID                                 : text
Duration                                 : 1h 33mn
Bit rate mode                            : Constant
Bit rate                                 : 0 bps
Stream size                              : 184 Bytes (0%)
Language                                 : English
Encoded date                             : UTC 2014-03-03 22:55:07
Tagged date                              : UTC 2014-03-03 22:55:07
Menu
00:00:00.000                             : Chapter 1
00:12:24.160                             : Chapter 2
00:22:07.868                             : Chapter 3
00:33:22.041                             : Chapter 4
00:44:51.855                             : Chapter 5
00:56:45.609                             : Chapter 6
01:07:12.568                             : Chapter 7
01:21:14.742                             : Chapter 8

x264 лог

Код:
x264 [info]: frame I:1478  Avg QP:16.25  size:160165  PSNR Mean Y:47.91 U:49.98 V:50.21 Avg:48.47 Global:47.75
x264 [info]: frame P:39231 Avg QP:18.23  size: 64319  PSNR Mean Y:46.21 U:48.27 V:48.61 Avg:46.77 Global:45.91
x264 [info]: frame B:93164 Avg QP:20.19  size: 30190  PSNR Mean Y:44.86 U:46.89 V:47.57 Avg:45.44 Global:44.65
x264 [info]: consecutive B-frames:  4.9% 11.0% 13.1% 28.7% 42.2%
x264 [info]: mb I  I16..4: 11.8% 67.4% 20.7%
x264 [info]: mb P  I16..4:  5.9% 22.5%  2.7%  P16..4: 35.2% 15.3%  8.1%  0.1%  0.0%    skip:10.2%
x264 [info]: mb B  I16..4:  1.8%  3.4%  0.4%  B16..8: 41.7% 10.0%  2.3%  direct:13.2%  skip:27.3%  L0:44.6% L1:46.8% BI: 8.6%
x264 [info]: 8x8 transform intra:69.1% inter:64.2%
x264 [info]: direct mvs  spatial:96.9% temporal:3.1%
x264 [info]: coded y,uvDC,uvAC intra: 76.0% 79.6% 56.0% inter: 36.0% 42.5% 13.3%
x264 [info]: i16 v,h,dc,p: 27% 17% 31% 25%
x264 [info]: i8 v,h,dc,ddl,ddr,vr,hd,vl,hu: 12% 11% 16%  8% 10% 11% 11% 10% 11%
x264 [info]: i4 v,h,dc,ddl,ddr,vr,hd,vl,hu: 18% 13% 18%  6%  9% 10%  9%  7%  9%
x264 [info]: i8c dc,h,v,p: 50% 19% 19% 11%
x264 [info]: Weighted P-Frames: Y:3.7% UV:2.4%
x264 [info]: ref P L0: 51.1% 10.1% 24.4% 12.7%  1.7%  0.1%
x264 [info]: ref B L0: 81.7% 14.6%  3.8%
x264 [info]: ref B L1: 90.2%  9.8%
x264 [info]: SSIM Mean Y:0.9797981 (16.946db)
x264 [info]: PSNR Mean Y:45.290 U:47.332 V:47.906 Avg:45.863 Global:45.008 kb/s:7984.28
Скриншоты: -

Релиз подготовлен для просмотра на Apple TV, iPad, iPhone, iPod Touch.
Для просмотра данного релиза на компьютере с ОС Windows рекомендуется использовать VLC media player

_________________
[Profile] [PM]
Display posts from previous:    

The time now is: Today 00:20

All times are GMT + 3 Hours



You cannot post new topics in this forum
You cannot reply to topics in this forum
You cannot edit your posts in this forum
You cannot delete your posts in this forum
You cannot vote in polls in this forum
You cannot attach files in this forum
You cannot download files in this forum