Today is free to download without increasing Download
 

Offline

Cool2013

Longevity:
5 years 11 months
Posts:
608

Пираты Карибского моря: На краю Света / Pirates of the Caribbean: At World's End (2007) BDRip [1080p] ATV
«At the End of the World, the Adventure Begins»- Русское название: Пираты Карибского моря: На краю Света
Оригинальное название: Pirates of the Caribbean: At World's End
Год выпуска: 2007
Производство: США
Жанр: Триллер, Приключения, Фэнтези
Режиссер: Гор Вербински
В ролях: Джонни Депп, Джеффри Раш, Орландо Блум, Кира Найтли, Джек Девенпорт, Билл Найти, Джонатан Прайс, Маккензи Крук, Ли Аренберг, Кевин МакНалли, Дэвид Бейли, Стеллан Скарсгард, Том Холландер, Наоми Харрис, Мартин Клеббэ, Дэвид Шофилд, Грег Эллис, Лоурен Мехер, Клайв Эшборн, Уинстон Эллис, Кристофер Адамсон
Кинопоиск: http://www.kinopoisk.ru/film/102124/
imdb: http://www.imdb.com/title/tt0449088/
Описание фильма:Новые приключения Джека Воробья и его друзей Уилла Тернера и Элизабет Суонн. На этот раз Уиллу и Элизабет придется объединиться с самим Капитаном Барбоссой для того, чтобы отправиться на край света и спасти своего друга - Джека. Ситуация осложняется тем, что Элизабет попадает к сингапурским пиратам...-Продолжительность: 02:48:31
Перевод: профессиональный дублированный
Язык субтитров: Русские, Украинские, Английские
Качество: BDRip 1080p
Формат: MP4 (контейнер m4v)
Видеокодек: MPEG-4 AVC
Аудиокодек: AC3, AAC-Видео : AVC at 12,5 Мбит/сек 1920 x 1080 (1.778) at 23.976 fps
Аудио : AAC at 179 Кбит/сек 2 канала, 48,0 КГц (Русский) Дублированный
Аудио : AC-3 at 640 Кбит/сек 6 каналов, 48,0 КГц (Русский) Дублированный
Аудио : AAC at 186 Кбит/сек 2 канала, 48,0 КГц (Английский) Оригинал
Аудио : AC-3 at 448 Кбит/сек 6 каналов, 48,0 КГц (Английский) Оригинал-

MediaTag

Media Type: Movie HD 1080p
Sort Name: Пираты Карибского моря: На краю Cвета
XID: Apple:vendor_id:2007-102124
Content ID: 266229473
ScreenWriters: Тед Эллиот, Терри Россио, Стюарт Битти
Producers: Джерри Брукхаймер, Брюс Хендрикс, Джек Ни
Director: Гор Вербински
Cast: Джонни Депп, Джеффри Раш, Орландо Блум, Кира Найтли, Том Холландер, Билл Найи, Стеллан Скарсгард, Наоми Харрис, Джек Девенпорт, Чоу Юнь-Фат, Сергей Дьячков, Виктор Костецкий, Андрей Зайцев, Евгения Игумнова, Олег Куликович
Rating: 12+
Long Description: Новые приключения Джека Воробья и его друзей Уилла Тернера и Элизабет Суонн. На этот раз Уиллу и Элизабет придется объединиться с самим Капитаном Барбоссой для того, чтобы отправиться на край света и спасти своего друга — Джека «Воробья». Ситуация осложняется тем, что Элизабет попадает к сингапурским пиратам…
Description: Новые приключения Джека Воробья и его друзей Уилла Тернера и Элизабет Суонн. На этот раз Уиллу и Элизабет придется объединиться с самим Капитаном Барбоссой для того, чтобы отправиться на край света и спасти своего друга — Джека «Воробья». Ситуация ос
Release Date: 2007-05-24T07:00:00Z
Genre: Action & Adventure
Artist: Gore Verbinski
Name: Пираты Карибского моря: На краю Cвета

MediaInfo

Формат : MPEG-4
Идентификатор кодека : M4V
Размер файла : 16,4 Гбайт
Продолжительность : 2 ч. 48 м.
Режим общего битрейта : Переменный
Общий поток : 13,9 Мбит/сек
Название фильма : Пираты Карибского моря: На краю Cвета
Исполнитель : Gore Verbinski
Жанр : Action & Adventure
Дата записи : UTC 2007-05-24 07:00:00
Дата кодирования : UTC 2014-03-02 17:41:49
Дата пометки : UTC 2014-03-02 18:11:06
Программа кодирования : MkvToMp4 [www.mkvtomp4.ru] version: 0.224 (x64)
Обложка : Yes
sonm : Пираты Карибского моря: На краю Cвета
desc : Новые приключения Джека Воробья и его друзей Уилла Тернера и Элизабет Суонн. На этот раз Уиллу и Элизабет придется объединиться с самим Капитаном Барбоссой для того, чтобы отправиться на край света и спасти своего друга — Джека «Воробья». Ситуация ос
ldes : Новые приключения Джека Воробья и его друзей Уилла Тернера и Элизабет Суонн. На этот раз Уиллу и Элизабет придется объединиться с самим Капитаном Барбоссой для того, чтобы отправиться на край света и спасти своего друга — Джека «Воробья». Ситуация осложняется тем, что Элизабет попадает к сингапурским пиратам…
hdvd : 2
stik : 9
cnID : 266229473
xid : Apple:vendor_id:2007-102124
iTunEXTC : ru-movie|12+|200|
iTunMOVI : / / / / cast / / / name / Джонни Депп / / / name / Джеффри Раш / / / name / Орландо Блум / / / name / Кира Найтли / / / name / Том Холландер / / / name / Билл Найи / / / name / Стеллан Скарсгард / / / name / Наоми Харрис / / / name / Джек Девенпорт / / / name / Чоу Юнь-Фат / / / name / Сергей Дьячков / / / name / Виктор Костецкий / / / name / Андрей Зайцев / / / name / Евгения Игумнова / / / name / Олег Куликович / / / directors / / / name / Гор Вербински / / / producers / / / name / Джерри Брукхаймер / / / name / Брюс Хендрикс / / / name / Джек Ни / / / screenwriters / / / name / Тед Эллиот / / / name / Терри Россио / / / name / Стюарт Битти / / / /
Видео
Идентификатор : 1
Формат : AVC
Формат/Информация : Advanced Video Codec
Профиль формата : [url=mailto:High@L4.1]High@L4.1[/url]
Параметр CABAC формата : Да
Параметр ReFrames формата : 5 кадров
Идентификатор кодека : avc1
Идентификатор кодека/Информация : Advanced Video Coding
Продолжительность : 2 ч. 48 м.
Битрейт : 12,5 Мбит/сек
Максимальный битрейт : 29,6 Мбит/сек
Ширина : 1920 пикселей
Высота : 800 пикселей
Соотношение сторон : 2,40:1
Режим частоты кадров : Постоянный
Частота кадров : 23,976 кадра/сек
Цветовое пространство : YUV
Субдискретизация насыщенности : 4:2:0
Битовая глубина : 8 бит
Тип развёртки : Прогрессивная
Бит/(Пиксели*Кадры) : 0.338
Размер потока : 14,7 Гбайт (89%)
Заголовок : Release for HDCLUB
Библиотека кодирования : x264 core 116 r2074 2641b9e
Настройки программы : cabac=1 / ref=5 / deblock=1:-2:-2 / analyse=0x3:0x113 / me=umh / subme=10 / psy=1 / psy_rd=1.00:0.10 / mixed_ref=1 / me_range=32 / chroma_me=1 / trellis=2 / 8x8dct=1 / cqm=0 / deadzone=21,11 / fast_pskip=0 / chroma_qp_offset=-3 / threads=12 / sliced_threads=0 / nr=0 / decimate=0 / interlaced=0 / bluray_compat=0 / constrained_intra=0 / bframes=7 / b_pyramid=2 / b_adapt=2 / b_bias=0 / direct=3 / weightb=1 / open_gop=0 / weightp=2 / keyint=250 / keyint_min=23 / scenecut=40 / intra_refresh=0 / rc_lookahead=40 / rc=2pass / mbtree=0 / bitrate=12463 / ratetol=1.0 / qcomp=0.60 / qpmin=0 / qpmax=69 / qpstep=4 / cplxblur=20.0 / qblur=0.5 / vbv_maxrate=50000 / vbv_bufsize=62500 / nal_hrd=none / ip_ratio=1.40 / pb_ratio=1.30 / aq=1:0.80
Язык : English
Дата кодирования : UTC 2014-03-02 17:41:49
Дата пометки : UTC 2014-03-02 17:53:33
Аудио #1
Идентификатор : 2
Формат : AAC
Формат/Информация : Advanced Audio Codec
Профиль формата : LC
Идентификатор кодека : 40
Продолжительность : 2 ч. 48 м.
Вид битрейта : Переменный
Битрейт : 179 Кбит/сек
Максимальный битрейт : 241 Кбит/сек
Каналы : 2 канала
Расположение каналов : Front: L R
Частота : 48,0 КГц
Метод сжатия : С потерями
Размер потока : 216 Мбайт (1%)
Язык : Russian
Дата кодирования : UTC 2014-03-02 16:35:28
Дата пометки : UTC 2014-03-02 17:53:33
Аудио #2
Идентификатор : 3
Формат : AC-3
Формат/Информация : Audio Coding 3
Расширение режима : CM (complete main)
Параметр Endianness формата : Big
Идентификатор кодека : ac-3
Продолжительность : 2 ч. 48 м.
Вид битрейта : Постоянный
Битрейт : 640 Кбит/сек
Каналы : 6 каналов
Расположение каналов : Front: L C R, Side: L R, LFE
Частота : 48,0 КГц
Битовая глубина : 16 бит
Метод сжатия : С потерями
Размер потока : 771 Мбайт (5%)
Язык : Russian
Дата кодирования : UTC 2014-03-02 17:51:34
Дата пометки : UTC 2014-03-02 17:53:33
Аудио #3
Идентификатор : 4
Формат : AAC
Формат/Информация : Advanced Audio Codec
Профиль формата : LC
Идентификатор кодека : 40
Продолжительность : 2 ч. 48 м.
Вид битрейта : Переменный
Битрейт : 186 Кбит/сек
Максимальный битрейт : 250 Кбит/сек
Каналы : 2 канала
Расположение каналов : Front: L R
Частота : 48,0 КГц
Метод сжатия : С потерями
Размер потока : 224 Мбайт (1%)
Язык : English
Дата кодирования : UTC 2014-03-02 17:36:31
Дата пометки : UTC 2014-03-02 17:53:33
Аудио #4
Идентификатор : 5
Формат : AC-3
Формат/Информация : Audio Coding 3
Расширение режима : CM (complete main)
Параметр Endianness формата : Big
Идентификатор кодека : ac-3
Продолжительность : 2 ч. 48 м.
Вид битрейта : Постоянный
Битрейт : 448 Кбит/сек
Каналы : 6 каналов
Расположение каналов : Front: L C R, Side: L R, LFE
Частота : 48,0 КГц
Битовая глубина : 16 бит
Метод сжатия : С потерями
Размер потока : 540 Мбайт (3%)
Язык : English
Дата кодирования : UTC 2014-03-02 17:52:44
Дата пометки : UTC 2014-03-02 17:53:33
Текст #1
Идентификатор : 6
Формат : Timed Text
Режим смешивания : sbtl
Идентификатор кодека : tx3g
Продолжительность : 2 ч. 47 м.
Вид битрейта : Переменный
Битрейт : 0 бит/сек
Размер потока : 395 байт (0%)
Язык : Russian
Дата кодирования : UTC 2014-03-02 17:53:33
Дата пометки : UTC 2014-03-02 17:53:33
Текст #2
Идентификатор : 7
Формат : Timed Text
Режим смешивания : sbtl
Идентификатор кодека : tx3g
Продолжительность : 2 ч. 47 м.
Вид битрейта : Переменный
Битрейт : 67 бит/сек
Размер потока : 82,6 Кбайт (0%)
Язык : Russian
Дата кодирования : UTC 2014-03-02 17:53:33
Дата пометки : UTC 2014-03-02 17:53:33
Текст #3
Идентификатор : 8
Формат : Timed Text
Режим смешивания : sbtl
Идентификатор кодека : tx3g
Продолжительность : 2 ч. 47 м.
Вид битрейта : Переменный
Битрейт : 69 бит/сек
Размер потока : 84,7 Кбайт (0%)
Язык : Ukrainian
Дата кодирования : UTC 2014-03-02 17:53:33
Дата пометки : UTC 2014-03-02 17:53:33
Текст #4
Идентификатор : 9
Формат : Timed Text
Режим смешивания : sbtl
Идентификатор кодека : tx3g
Продолжительность : 2 ч. 47 м.
Вид битрейта : Переменный
Битрейт : 47 бит/сек
Размер потока : 57,8 Кбайт (0%)
Язык : English
Дата кодирования : UTC 2014-03-02 17:53:33
Дата пометки : UTC 2014-03-02 17:53:33
Меню
Идентификатор : 10
Идентификатор кодека : text
Продолжительность : 2 ч. 48 м.
Дата кодирования : UTC 2014-03-02 18:11:06
Дата пометки : UTC 2014-03-02 18:11:06
Вид битрейта : CBR
-Скриншоты: -

Релиз подготовлен для просмотра на Apple TV, iPad, iPhone, iPod Touch.
Для просмотра данного релиза на компьютере с ОС Windows рекомендуется использовать VLC media player

_________________
[Profile] [PM]
Display posts from previous:    

The time now is: Today 08:21

All times are GMT + 3 Hours



You cannot post new topics in this forum
You cannot reply to topics in this forum
You cannot edit your posts in this forum
You cannot delete your posts in this forum
You cannot vote in polls in this forum
You cannot attach files in this forum
You cannot download files in this forum