Today is free to download without increasing Download
 

Online

volodya133

Longevity:
5 years 4 months
Posts:
2094

Salvatore Adamo - Si j’osais
Жанр: Шансон
Год выпуска: 2018
Формат: FLAC (tracks)
Битрейт аудио: lossless
Продолжительность: 00:33:22-Треклист:
01. Si j’osais
02. Rosina
03. Poor Fool
04. Perche
05. Cara Bambina
06. Laurence
07. Why Do You Come So Late
08. Se Pensi A Me
09. En blue jeans et blouson d’cuir
10. Laissons dire
11. Fais-toi croque-mort
12. Sans toi, ma mie
13. Si j’osais (version stereo)
14. La premiere fois que je t’ai vu

Отчёт EAC

Exact Audio Copy V1.3 from 2. September 2016
EAC extraction logfile from 18. December 2018, 16:55
Salvatore Adamo / Si j’osais
Used drive : HL-DT-STDVDRAM GMA-4082N Adapter: 1 ID: 1
Read mode : Secure
Utilize accurate stream : Yes
Defeat audio cache : Yes
Make use of C2 pointers : No
Read offset correction : 667
Overread into Lead-In and Lead-Out : No
Fill up missing offset samples with silence : Yes
Delete leading and trailing silent blocks : No
Null samples used in CRC calculations : Yes
Used interface : Native Win32 interface for Win NT & 2000
Gap handling : Appended to previous track
Used output format : User Defined Encoder
Selected bitrate : 768 kBit/s
Quality : High
Add ID3 tag : No
Command line compressor : C:\Program Files (x86)\Exact Audio Copy\Flac\flac.exe
Additional command line options : -8 -V -T "ARTIST=%artist%" -T "TITLE=%title%" -T "ALBUM=%albumtitle%" -T "DATE=%year%" -T "TRACKNUMBER=%tracknr%" -T "GENRE=%genre%" -T "COMMENT=%comment%" -T "BAND=%albuminterpret%" -T "ALBUMARTIST=%albuminterpret%" -T "COMPOSER=%composer%" %haslyrics%--tag-from-file=LYRICS="%lyricsfile%"%haslyrics% -T "DISCNUMBER=%cdnumber%" -T "TOTALDISCS=%totalcds%" -T "TOTALTRACKS=%numtracks%" %hascover%--picture="%coverfile%"%hascover% %source% -o %dest%
TOC of the extracted CD
Track | Start | Length | Start sector | End sector
---------------------------------------------------------
1 | 0:00.00 | 2:58.61 | 0 | 13410
2 | 2:58.61 | 2:14.42 | 13411 | 23502
3 | 5:13.28 | 2:12.01 | 23503 | 33403
4 | 7:25.29 | 2:27.51 | 33404 | 44479
5 | 9:53.05 | 2:20.10 | 44480 | 54989
6 | 12:13.15 | 2:31.29 | 54990 | 66343
7 | 14:44.44 | 2:06.59 | 66344 | 75852
8 | 16:51.28 | 2:19.50 | 75853 | 86327
9 | 19:11.03 | 2:59.72 | 86328 | 99824
10 | 22:11.00 | 2:02.71 | 99825 | 109045
11 | 24:13.71 | 2:30.17 | 109046 | 120312
12 | 26:44.13 | 2:45.68 | 120313 | 132755
13 | 29:30.06 | 2:59.20 | 132756 | 146200
14 | 32:29.26 | 0:52.69 | 146201 | 150169
Track 1
Filename D:\Lietotājs\My Music\Flac\01. Si j’osais.wav
Pre-gap length 0:00:02.00
Peak level 99.4 %
Extraction speed 2.2 X
Track quality 100.0 %
Test CRC 35520355
Copy CRC 35520355
Track not present in AccurateRip database
Copy OK
Track 2
Filename D:\Lietotājs\My Music\Flac\02. Rosina.wav
Peak level 99.2 %
Extraction speed 2.3 X
Track quality 100.0 %
Test CRC 43EA19C1
Copy CRC 43EA19C1
Track not present in AccurateRip database
Copy OK
Track 3
Filename D:\Lietotājs\My Music\Flac\03. Poor Fool.wav
Peak level 99.4 %
Extraction speed 2.4 X
Track quality 100.0 %
Test CRC 6F498B90
Copy CRC 6F498B90
Track not present in AccurateRip database
Copy OK
Track 4
Filename D:\Lietotājs\My Music\Flac\04. Perche.wav
Peak level 99.4 %
Extraction speed 2.5 X
Track quality 100.0 %
Test CRC 844E2D5E
Copy CRC 844E2D5E
Track not present in AccurateRip database
Copy OK
Track 5
Filename D:\Lietotājs\My Music\Flac\05. Cara Bambina.wav
Peak level 99.4 %
Extraction speed 2.7 X
Track quality 100.0 %
Test CRC EA670D95
Copy CRC EA670D95
Track not present in AccurateRip database
Copy OK
Track 6
Filename D:\Lietotājs\My Music\Flac\06. Laurence.wav
Peak level 99.4 %
Extraction speed 2.4 X
Track quality 99.9 %
Test CRC DFD3052C
Copy CRC DFD3052C
Track not present in AccurateRip database
Copy OK
Track 7
Filename D:\Lietotājs\My Music\Flac\07. Why Do You Come So Late.wav
Peak level 99.4 %
Extraction speed 2.2 X
Track quality 99.9 %
Test CRC 692C8894
Copy CRC 692C8894
Track not present in AccurateRip database
Copy OK
Track 8
Filename D:\Lietotājs\My Music\Flac\08. Se Pensi A Me.wav
Peak level 99.4 %
Extraction speed 3.0 X
Track quality 100.0 %
Test CRC 3DA3BD82
Copy CRC 3DA3BD82
Track not present in AccurateRip database
Copy OK
Track 9
Filename D:\Lietotājs\My Music\Flac\09. En blue jeans et blouson d’cuir.wav
Peak level 99.4 %
Extraction speed 3.3 X
Track quality 100.0 %
Test CRC BB5BCF47
Copy CRC BB5BCF47
Track not present in AccurateRip database
Copy OK
Track 10
Filename D:\Lietotājs\My Music\Flac\10. Laissons dire.wav
Peak level 99.4 %
Extraction speed 3.1 X
Track quality 100.0 %
Test CRC 28EFEFD2
Copy CRC 28EFEFD2
Track not present in AccurateRip database
Copy OK
Track 11
Filename D:\Lietotājs\My Music\Flac\11. Fais-toi croque-mort.wav
Peak level 99.4 %
Extraction speed 3.4 X
Track quality 100.0 %
Test CRC 45E9AC0F
Copy CRC 45E9AC0F
Track not present in AccurateRip database
Copy OK
Track 12
Filename D:\Lietotājs\My Music\Flac\12. Sans toi, ma mie.wav
Peak level 99.4 %
Extraction speed 3.4 X
Track quality 100.0 %
Test CRC E03B077F
Copy CRC E03B077F
Track not present in AccurateRip database
Copy OK
Track 13
Filename D:\Lietotājs\My Music\Flac\13. Si j’osais (version stereo).wav
Peak level 99.4 %
Extraction speed 3.1 X
Track quality 99.9 %
Test CRC FC9249A9
Copy CRC FC9249A9
Track not present in AccurateRip database
Copy OK
Track 14
Filename D:\Lietotājs\My Music\Flac\14. La premiere fois que je t’ai vu.wav
Peak level 99.4 %
Extraction speed 2.7 X
Track quality 100.0 %
Test CRC 016F97F9
Copy CRC 016F97F9
Track not present in AccurateRip database
Copy OK
None of the tracks are present in the AccurateRip database
No errors occurred
End of status report
---- CUETools DB Plugin V2.1.6
[CTDB TOCID: KDfC2gQMKV4VYNjRlw.GNeS.qQY-] disk not present in database
Submit result: KDfC2gQMKV4VYNjRlw.GNeS.qQY- has been uploaded
==== Log checksum 2EAB114EC2E5ECCF5915A9363560D1C6C52E06A6866C8885F47ACC801A477C85 ====

От Volodya133

_________________
[Profile] [PM]
Display posts from previous:    

The time now is: Today 19:01

All times are GMT + 3 Hours



You cannot post new topics in this forum
You cannot reply to topics in this forum
You cannot edit your posts in this forum
You cannot delete your posts in this forum
You cannot vote in polls in this forum
You cannot attach files in this forum
You cannot download files in this forum