Today is free to download without increasing Download
 

Offline

sergej644

Longevity:
6 years 4 months
Posts:
914

-C. C. Catch - The 80's Album (2CD)--
Год издания: 2005
Страна: Germany
Жанр: Eurodisco, Europop
Продолжительность: 02:32:10-Лейбл издания: Edel
Страна-выпуска диска: EU
Номер по каталогу: 0164692ERE-Формат: FLAC
Битрейт аудио: Lossless
Тип рипа: image +.cue
Наличие сканов в содержимом раздачи: да
-

Трэклист

CD 1 | 01:16:04


01. 'Cause You Are Young (Maxi-Version) (4:45)
02. I Can Lose My Heart Tonight (Maxi-Version) (5:52)
03. You Shot A Hole In My Soul (Maxi-Version) (5:16)
04. One Night's Not Enough (3:21)
05. Strangers By Night (Maxi-Version) (5:42)
06. Stay (Maxi-Version) (5:47)
07. Jump In My Car (Maxi-Version) (4:33)
08. You Can Be My Lucky Star Tonight (Maxi-Version) (5:15)
09. Heartbreak Hotel (3:35)
10. Picture Blue Eyes (3:32)
11. Tears Won't Wash Away My Heartache (4:19)
12. VIP (They're Calling Me Tonight) (3:27)
13. You Can't Run Away From It (3:13)
14. Heaven And Hell (3:42)
15. Hollywood Nights (3:12)
16. Born On The Wind (3:49)
17. Wild Fire (3:36)
18. Stop - Draggin' My Heart Around (3:08)

CD 2 | 01:16:06


01. Good Guys Only Win In Movies (Single-Version) (3:50)
02. Like A Hurricane (3:16)
03. Smokey Joe's Cafe (3:43)
04. Are You Man Enough (3:38)
05. Don't Be A Hero (3:34)
06. Soul Survivor (Single-Version) (3:16)
07. Midnight Gambler (Long Version) (4:27)
08. Don't Wait Too Long (3:22)
09. Dancing In Shadows (3:34)
10. House Of Mystic Lights (Radio Swing Mix) (3:03)
11. Don't Shoot My Sheriff Tonight (3:08)
12. Do You Love As You Look (3:34)
13. Backseat Of Your Cadillac (Single-Version) (3:22)
14. Summer Kisses (3:49)
15. Are You Serious (3:05)
16. Night In Africa (4:05)
17. Heartbeat City (3:36)
18. Baby I Need Your Love (3:01)
19. Little By Little (3:04)
20. Nothing But A Heartache (Radio Mix) (3:02)
21. If I Feel Love (3:40)
22. Fire Of Love (2:58)
-

Лог создания рипа

CD 1

Код:
Exact Audio Copy V1.3 from 2. September 2016
EAC extraction logfile from 6. January 2017, 16:08
C. C. Catch / The 80's Album (CD1)
Used drive  : TSSTcorpCDDVDW SH-224GB   Adapter: 1  ID: 0
Read mode               : Secure
Utilize accurate stream : Yes
Defeat audio cache      : Yes
Make use of C2 pointers : No
Read offset correction                      : 6
Overread into Lead-In and Lead-Out          : No
Fill up missing offset samples with silence : Yes
Delete leading and trailing silent blocks   : No
Null samples used in CRC calculations       : Yes
Used interface                              : Native Win32 interface for Win NT & 2000
Used output format              : User Defined Encoder
Selected bitrate                : 128 kBit/s
Quality                         : High
Add ID3 tag                     : No
Command line compressor         : C:\Program Files (x86)\Exact Audio Copy\FLAC\FLAC.EXE
Additional command line options : -V -8 -T "Date=%year%" -T "Genre=%genre%" %source%
TOC of the extracted CD
     Track |   Start  |  Length  | Start sector | End sector
    ---------------------------------------------------------
        1  |  0:00.00 |  4:44.61 |         0    |    21360
        2  |  4:44.61 |  5:52.07 |     21361    |    47767
        3  | 10:36.68 |  5:15.67 |     47768    |    71459
        4  | 15:52.60 |  3:20.71 |     71460    |    86530
        5  | 19:13.56 |  5:42.37 |     86531    |   112217
        6  | 24:56.18 |  5:47.09 |    112218    |   138251
        7  | 30:43.27 |  4:33.15 |    138252    |   158741
        8  | 35:16.42 |  5:15.18 |    158742    |   182384
        9  | 40:31.60 |  3:34.45 |    182385    |   198479
       10  | 44:06.30 |  3:32.06 |    198480    |   214385
       11  | 47:38.36 |  4:18.60 |    214386    |   233795
       12  | 51:57.21 |  3:27.21 |    233796    |   249341
       13  | 55:24.42 |  3:13.05 |    249342    |   263821
       14  | 58:37.47 |  3:41.49 |    263822    |   280445
       15  | 62:19.21 |  3:11.38 |    280446    |   294808
       16  | 65:30.59 |  3:49.09 |    294809    |   311992
       17  | 69:19.68 |  3:35.64 |    311993    |   328181
       18  | 72:55.57 |  3:08.18 |    328182    |   342299
Range status and errors
Selected range
     Filename G:\ЕАС\rwa12\C. C. Catch - The 80's Album (CD1).wav
     Peak level 99.3 %
     Extraction speed 3.4 X
     Range quality 99.9 %
     Test CRC 8B1F9915
     Copy CRC 8B1F9915
     Copy OK
No errors occurred
AccurateRip summary
Track  1  accurately ripped (confidence 4)  [4BC4E61E]  (AR v2)
Track  2  accurately ripped (confidence 4)  [4D266717]  (AR v2)
Track  3  accurately ripped (confidence 4)  [41F8C7B4]  (AR v2)
Track  4  accurately ripped (confidence 4)  [8272F7AF]  (AR v2)
Track  5  accurately ripped (confidence 4)  [6725DB61]  (AR v2)
Track  6  accurately ripped (confidence 4)  [0128DDD1]  (AR v2)
Track  7  accurately ripped (confidence 4)  [0D141283]  (AR v2)
Track  8  accurately ripped (confidence 4)  [A0AC5517]  (AR v2)
Track  9  accurately ripped (confidence 4)  [3E04130D]  (AR v2)
Track 10  accurately ripped (confidence 4)  [B2A99F4E]  (AR v2)
Track 11  accurately ripped (confidence 4)  [4B07AFB6]  (AR v2)
Track 12  accurately ripped (confidence 4)  [78E8657A]  (AR v2)
Track 13  accurately ripped (confidence 4)  [FFAAF63A]  (AR v2)
Track 14  accurately ripped (confidence 4)  [1B12B354]  (AR v2)
Track 15  accurately ripped (confidence 4)  [07B344F9]  (AR v2)
Track 16  accurately ripped (confidence 4)  [42B735E6]  (AR v2)
Track 17  accurately ripped (confidence 4)  [353F6863]  (AR v2)
Track 18  accurately ripped (confidence 4)  [5A03847B]  (AR v2)
All tracks accurately ripped
End of status report

CD 2

Код:
Exact Audio Copy V1.3 from 2. September 2016
EAC extraction logfile from 6. January 2017, 19:37
C. C. Catch / The 80's Album (CD2)
Used drive  : TSSTcorpCDDVDW SH-224GB   Adapter: 1  ID: 0
Read mode               : Secure
Utilize accurate stream : Yes
Defeat audio cache      : Yes
Make use of C2 pointers : No
Read offset correction                      : 6
Overread into Lead-In and Lead-Out          : No
Fill up missing offset samples with silence : Yes
Delete leading and trailing silent blocks   : No
Null samples used in CRC calculations       : Yes
Used interface                              : Native Win32 interface for Win NT & 2000
Used output format              : User Defined Encoder
Selected bitrate                : 128 kBit/s
Quality                         : High
Add ID3 tag                     : No
Command line compressor         : C:\Program Files (x86)\Exact Audio Copy\FLAC\FLAC.EXE
Additional command line options : -V -8 -T "Date=%year%" -T "Genre=%genre%" %source%
TOC of the extracted CD
     Track |   Start  |  Length  | Start sector | End sector
    ---------------------------------------------------------
        1  |  0:00.00 |  3:49.44 |         0    |    17218
        2  |  3:49.44 |  3:15.38 |     17219    |    31881
        3  |  7:05.07 |  3:42.47 |     31882    |    48578
        4  | 10:47.54 |  3:38.12 |     48579    |    64940
        5  | 14:25.66 |  3:33.61 |     64941    |    80976
        6  | 17:59.52 |  3:16.02 |     80977    |    95678
        7  | 21:15.54 |  4:26.54 |     95679    |   115682
        8  | 25:42.33 |  3:22.24 |    115683    |   130856
        9  | 29:04.57 |  3:34.04 |    130857    |   146910
       10  | 32:38.61 |  3:03.29 |    146911    |   160664
       11  | 35:42.15 |  3:07.60 |    160665    |   174749
       12  | 38:50.00 |  3:33.47 |    174750    |   190771
       13  | 42:23.47 |  3:21.58 |    190772    |   205904
       14  | 45:45.30 |  3:49.22 |    205905    |   223101
       15  | 49:34.52 |  3:04.60 |    223102    |   236961
       16  | 52:39.37 |  4:05.10 |    236962    |   255346
       17  | 56:44.47 |  3:36.13 |    255347    |   271559
       18  | 60:20.60 |  3:01.15 |    271560    |   285149
       19  | 63:22.00 |  3:04.15 |    285150    |   298964
       20  | 66:26.15 |  3:01.63 |    298965    |   312602
       21  | 69:28.03 |  3:40.17 |    312603    |   329119
       22  | 73:08.20 |  2:57.55 |    329120    |   342449
Range status and errors
Selected range
     Filename G:\ЕАС\rwa12\C. C. Catch - The 80's Album (CD2).wav
     Peak level 100.0 %
     Extraction speed 3.4 X
     Range quality 99.9 %
     Test CRC D57D9766
     Copy CRC D57D9766
     Copy OK
No errors occurred
AccurateRip summary
Track  1  accurately ripped (confidence 4)  [6E06E0C6]  (AR v2)
Track  2  accurately ripped (confidence 4)  [FEB9DB15]  (AR v2)
Track  3  accurately ripped (confidence 4)  [D01F9112]  (AR v2)
Track  4  accurately ripped (confidence 4)  [FF883F51]  (AR v2)
Track  5  accurately ripped (confidence 4)  [223DD87D]  (AR v2)
Track  6  accurately ripped (confidence 4)  [85F79DAE]  (AR v2)
Track  7  accurately ripped (confidence 4)  [32BBE24C]  (AR v2)
Track  8  accurately ripped (confidence 4)  [6473E027]  (AR v2)
Track  9  accurately ripped (confidence 4)  [787DABA3]  (AR v2)
Track 10  accurately ripped (confidence 4)  [DF5E39A2]  (AR v2)
Track 11  accurately ripped (confidence 4)  [55355F70]  (AR v2)
Track 12  accurately ripped (confidence 4)  [71939AE2]  (AR v2)
Track 13  accurately ripped (confidence 4)  [EA56742B]  (AR v2)
Track 14  accurately ripped (confidence 4)  [C9E0D9C8]  (AR v2)
Track 15  accurately ripped (confidence 4)  [B617DC43]  (AR v2)
Track 16  accurately ripped (confidence 4)  [C3163A60]  (AR v2)
Track 17  accurately ripped (confidence 4)  [894A7410]  (AR v2)
Track 18  accurately ripped (confidence 4)  [EFC641B5]  (AR v2)
Track 19  accurately ripped (confidence 4)  [F9769FFF]  (AR v2)
Track 20  accurately ripped (confidence 4)  [D6946BA5]  (AR v2)
Track 21  accurately ripped (confidence 4)  [234F824F]  (AR v2)
Track 22  accurately ripped (confidence 4)  [43DC5859]  (AR v2)
All tracks accurately ripped
End of status report

Индексная карта (non-compilant .cue)

CD 1

Код:
REM GENRE Eurodisco/Europop
REM DATE 2005
REM DISCID 1511D412
REM COMMENT "ExactAudioCopy v1.3"
PERFORMER "C. C. Catch"
TITLE "The 80's Album (CD1)"
REM COMPOSER ""
FILE "C. C. Catch - The 80's Album (CD1).flac" WAVE
  TRACK 01 AUDIO
    TITLE "'Cause You Are Young (Maxi-Version)"
    PERFORMER "C. C. Catch"
    REM COMPOSER ""
    INDEX 01 00:00:00
  TRACK 02 AUDIO
    TITLE "I Can Lose My Heart Tonight (Maxi-Version)"
    PERFORMER "C. C. Catch"
    REM COMPOSER ""
    INDEX 01 04:44:61
  TRACK 03 AUDIO
    TITLE "You Shot A Hole In My Soul (Maxi-Version)"
    PERFORMER "C. C. Catch"
    REM COMPOSER ""
    INDEX 01 10:36:68
  TRACK 04 AUDIO
    TITLE "One Night's Not Enough"
    PERFORMER "C. C. Catch"
    REM COMPOSER ""
    INDEX 01 15:52:60
  TRACK 05 AUDIO
    TITLE "Strangers By Night (Maxi-Version)"
    PERFORMER "C. C. Catch"
    REM COMPOSER ""
    INDEX 01 19:13:56
  TRACK 06 AUDIO
    TITLE "Stay (Maxi-Version)"
    PERFORMER "C. C. Catch"
    REM COMPOSER ""
    INDEX 01 24:56:18
  TRACK 07 AUDIO
    TITLE "Jump In My Car (Maxi-Version)"
    PERFORMER "C. C. Catch"
    REM COMPOSER ""
    INDEX 01 30:43:27
  TRACK 08 AUDIO
    TITLE "You Can Be My Lucky Star Tonight (Maxi-Version)"
    PERFORMER "C. C. Catch"
    REM COMPOSER ""
    INDEX 01 35:16:42
  TRACK 09 AUDIO
    TITLE "Heartbreak Hotel"
    PERFORMER "C. C. Catch"
    REM COMPOSER ""
    INDEX 01 40:31:60
  TRACK 10 AUDIO
    TITLE "Picture Blue Eyes"
    PERFORMER "C. C. Catch"
    REM COMPOSER ""
    INDEX 01 44:06:30
  TRACK 11 AUDIO
    TITLE "Tears Won't Wash Away My Heartache"
    PERFORMER "C. C. Catch"
    REM COMPOSER ""
    INDEX 01 47:38:36
  TRACK 12 AUDIO
    TITLE "VIP (They're Calling Me Tonight)"
    PERFORMER "C. C. Catch"
    REM COMPOSER ""
    INDEX 01 51:57:21
  TRACK 13 AUDIO
    TITLE "You Can't Run Away From It"
    PERFORMER "C. C. Catch"
    REM COMPOSER ""
    INDEX 01 55:24:42
  TRACK 14 AUDIO
    TITLE "Heaven And Hell"
    PERFORMER "C. C. Catch"
    REM COMPOSER ""
    INDEX 01 58:37:47
  TRACK 15 AUDIO
    TITLE "Hollywood Nights"
    PERFORMER "C. C. Catch"
    REM COMPOSER ""
    INDEX 01 62:19:21
  TRACK 16 AUDIO
    TITLE "Born On The Wind"
    PERFORMER "C. C. Catch"
    REM COMPOSER ""
    INDEX 01 65:30:59
  TRACK 17 AUDIO
    TITLE "Wild Fire"
    PERFORMER "C. C. Catch"
    REM COMPOSER ""
    INDEX 01 69:19:68
  TRACK 18 AUDIO
    TITLE "Stop - Draggin' My Heart Around"
    PERFORMER "C. C. Catch"
    REM COMPOSER ""
    INDEX 01 72:55:57

CD 2

Код:
REM GENRE Eurodisco/Europop
REM DATE 2005
REM DISCID 4611D616
REM COMMENT "ExactAudioCopy v1.3"
PERFORMER "C. C. Catch"
TITLE "The 80's Album (CD2)"
REM COMPOSER ""
FILE "C. C. Catch - The 80's Album (CD2).flac" WAVE
  TRACK 01 AUDIO
    TITLE "Good Guys Only Win In Movies (Single-Version)"
    PERFORMER "C. C. Catch"
    REM COMPOSER ""
    INDEX 01 00:00:00
  TRACK 02 AUDIO
    TITLE "Like A Hurricane"
    PERFORMER "C. C. Catch"
    REM COMPOSER ""
    INDEX 01 03:49:44
  TRACK 03 AUDIO
    TITLE "Smokey Joe's Cafe"
    PERFORMER "C. C. Catch"
    REM COMPOSER ""
    INDEX 01 07:05:07
  TRACK 04 AUDIO
    TITLE "Are You Man Enough"
    PERFORMER "C. C. Catch"
    REM COMPOSER ""
    INDEX 01 10:47:54
  TRACK 05 AUDIO
    TITLE "Don't Be A Hero"
    PERFORMER "C. C. Catch"
    REM COMPOSER ""
    INDEX 01 14:25:66
  TRACK 06 AUDIO
    TITLE "Soul Survivor (Single-Version)"
    PERFORMER "C. C. Catch"
    REM COMPOSER ""
    INDEX 01 17:59:52
  TRACK 07 AUDIO
    TITLE "Midnight Gambler (Long Version)"
    PERFORMER "C. C. Catch"
    REM COMPOSER ""
    INDEX 01 21:15:54
  TRACK 08 AUDIO
    TITLE "Don't Wait Too Long"
    PERFORMER "C. C. Catch"
    REM COMPOSER ""
    INDEX 01 25:42:33
  TRACK 09 AUDIO
    TITLE "Dancing In Shadows"
    PERFORMER "C. C. Catch"
    REM COMPOSER ""
    INDEX 01 29:04:57
  TRACK 10 AUDIO
    TITLE "House Of Mystic Lights (Radio Swing Mix)"
    PERFORMER "C. C. Catch"
    REM COMPOSER ""
    INDEX 01 32:38:61
  TRACK 11 AUDIO
    TITLE "Don't Shoot My Sheriff Tonight"
    PERFORMER "C. C. Catch"
    REM COMPOSER ""
    INDEX 01 35:42:15
  TRACK 12 AUDIO
    TITLE "Do You Love As You Look"
    PERFORMER "C. C. Catch"
    REM COMPOSER ""
    INDEX 01 38:50:00
  TRACK 13 AUDIO
    TITLE "Backseat Of Your Cadillac (Single-Version)"
    PERFORMER "C. C. Catch"
    REM COMPOSER ""
    INDEX 01 42:23:47
  TRACK 14 AUDIO
    TITLE "Summer Kisses"
    PERFORMER "C. C. Catch"
    REM COMPOSER ""
    INDEX 01 45:45:30
  TRACK 15 AUDIO
    TITLE "Are You Serious"
    PERFORMER "C. C. Catch"
    REM COMPOSER ""
    INDEX 01 49:34:52
  TRACK 16 AUDIO
    TITLE "Night In Africa"
    PERFORMER "C. C. Catch"
    REM COMPOSER ""
    INDEX 01 52:39:37
  TRACK 17 AUDIO
    TITLE "Heartbeat City"
    PERFORMER "C. C. Catch"
    REM COMPOSER ""
    INDEX 01 56:44:47
  TRACK 18 AUDIO
    TITLE "Baby I Need Your Love"
    PERFORMER "C. C. Catch"
    REM COMPOSER ""
    INDEX 01 60:20:60
  TRACK 19 AUDIO
    TITLE "Little By Little"
    PERFORMER "C. C. Catch"
    REM COMPOSER ""
    INDEX 01 63:22:00
  TRACK 20 AUDIO
    TITLE "Nothing But A Heartache (Radio Mix)"
    PERFORMER "C. C. Catch"
    REM COMPOSER ""
    INDEX 01 66:26:15
  TRACK 21 AUDIO
    TITLE "If I Feel Love"
    PERFORMER "C. C. Catch"
    REM COMPOSER ""
    INDEX 01 69:28:03
  TRACK 22 AUDIO
    TITLE "Fire Of Love"
    PERFORMER "C. C. Catch"
    REM COMPOSER ""
    INDEX 01 73:08:20
--

_________________
Разница между теорией и практикой в том, что теоретически разницы между теорией и практикой нет, а на практике она есть.
[Profile] [PM]
Display posts from previous:    

The time now is: Today 14:38

All times are GMT + 3 Hours



You cannot post new topics in this forum
You cannot reply to topics in this forum
You cannot edit your posts in this forum
You cannot delete your posts in this forum
You cannot vote in polls in this forum
You cannot attach files in this forum
You cannot download files in this forum