Золотые дни идет свободное скачивание без начисления Download
 

Офлайн

volodya133

Стаж:
3 года 5 месяцев
Сообщений:
877

Joy/BestНазвание: Best
Исполнитель: Joy
Год: 1986
Издание: OK Musica - 78.23591
Жанр: Disco, Euro-Disco
Страна: Austria
Продолжительность: 00:46:30
Формат/Кодек: FLAC
Битрейт аудио: Lossless
Тип рипа: tracks + .cue
Рип: шарик-off

Трек-лист

01. Touch By Touch (3:50)
02. Kisses Are The Doctor's Order (3:29)
03. Chinese Girls (3:40)
04. Valerie (4:12)
05. Hello (4:16)
06. Gimme Gimme All Of You (3:53)
07. Magic Eyes (4:02)
08. Black Is Black (3:50)
09. Touch Me My Dear (3:39)
10. I'm In Love (3:56)
11. Night Of The Nights (4:33)
12. Japanese Girls (3:33)
Отчёт EACExact Audio Copy V1.3 from 2. September 2016
EAC extraction logfile from 5. January 2018, 16:43
Joy / Best
Used drive : ASUS DRW-24D5MT Adapter: 1 ID: 0
Read mode : Secure
Utilize accurate stream : Yes
Defeat audio cache : Yes
Make use of C2 pointers : No
Read offset correction : 6
Overread into Lead-In and Lead-Out : No
Fill up missing offset samples with silence : Yes
Delete leading and trailing silent blocks : No
Null samples used in CRC calculations : Yes
Used interface : Native Win32 interface for Win NT & 2000
Gap handling : Appended to next track
Used output format : User Defined Encoder
Selected bitrate : 896 kBit/s
Quality : High
Add ID3 tag : No
Command line compressor : C:Program Files (x86)Exact Audio CopyFlacflac.exe
Additional command line options : -8 -V -T "TITLE=%title%" -T "ARTIST=%artist%" -T "ALBUMARTIST=%albumartist%" -T "ALBUM=%albumtitle%" -T "DATE=%year%" -T "TRACKNUMBER=%tracknr%" -T "TRACKTOTAL=%numtracks%" -T "GENRE=%genre%" -T "COMMENT=%comment%" -T "PERFORMER=%albuminterpret%" -T "COMPOSER=%composer%" %source% -o %dest%
TOC of the extracted CD
Track | Start | Length | Start sector | End sector
---------------------------------------------------------
1 | 0:00.00 | 3:46.70 | 0 | 17019
2 | 3:46.70 | 3:29.48 | 17020 | 32742
3 | 7:16.43 | 3:35.25 | 32743 | 48892
4 | 10:51.68 | 4:10.02 | 48893 | 67644
5 | 15:01.70 | 4:08.13 | 67645 | 86257
6 | 19:10.08 | 3:50.65 | 86258 | 103572
7 | 23:00.73 | 4:01.10 | 103573 | 121657
8 | 27:02.08 | 3:47.55 | 121658 | 138737
9 | 30:49.63 | 3:41.12 | 138738 | 155324
10 | 34:31.00 | 3:56.08 | 155325 | 173032
11 | 38:27.08 | 4:30.00 | 173033 | 193282
12 | 42:57.08 | 3:33.00 | 193283 | 209257
Track 1
Filename C:Music1. Touch By Touch.wav
Pre-gap length 0:00:02.00
Peak level 66.1 %
Extraction speed 1.0 X
Track quality 100.0 %
Test CRC A6AB57DA
Copy CRC A6AB57DA
Cannot be verified as accurate (confidence 2) [6D39CE86], AccurateRip returned [66408B4B] (AR v2)
Copy OK
Track 2
Filename C:Music2. Kisses Are The Doctor's Orders.wav
Peak level 70.7 %
Extraction speed 1.1 X
Track quality 100.0 %
Test CRC E24DA2AF
Copy CRC E24DA2AF
Cannot be verified as accurate (confidence 2) [6B4E2890], AccurateRip returned [6A370CB5] (AR v2)
Copy OK
Track 3
Filename C:Music3. Chinese Girls.wav
Peak level 77.4 %
Extraction speed 1.2 X
Track quality 100.0 %
Test CRC D3266BC4
Copy CRC D3266BC4
Cannot be verified as accurate (confidence 2) [D95774FA], AccurateRip returned [32337A92] (AR v2)
Copy OK
Track 4
Filename C:Music4. Valerie.wav
Peak level 74.3 %
Extraction speed 1.3 X
Track quality 100.0 %
Test CRC 9F2657CF
Copy CRC 9F2657CF
Cannot be verified as accurate (confidence 2) [42111D75], AccurateRip returned [3BB655F0] (AR v2)
Copy OK
Track 5
Filename C:Music5. Hello.wav
Peak level 86.0 %
Extraction speed 1.4 X
Track quality 100.0 %
Test CRC 069AFF72
Copy CRC 069AFF72
Cannot be verified as accurate (confidence 2) [9D93DAE5], AccurateRip returned [F5054952] (AR v2)
Copy OK
Track 6
Filename C:Music6. Gimme Gimme All Of You.wav
Peak level 85.7 %
Extraction speed 1.5 X
Track quality 100.0 %
Test CRC 3F9AD35F
Copy CRC 3F9AD35F
Cannot be verified as accurate (confidence 2) [8F43E099], AccurateRip returned [1098B8A7] (AR v2)
Copy OK
Track 7
Filename C:Music7. Magic Eyes.wav
Peak level 64.8 %
Extraction speed 1.5 X
Track quality 100.0 %
Test CRC 5D34FC0B
Copy CRC 5D34FC0B
Cannot be verified as accurate (confidence 2) [EF0F2759], AccurateRip returned [EBC769AF] (AR v2)
Copy OK
Track 8
Filename C:Music8. Black Is Black.wav
Peak level 96.0 %
Extraction speed 1.4 X
Track quality 99.9 %
Test CRC 8C9991F1
Copy CRC 8C9991F1
Cannot be verified as accurate (confidence 2) [B4E29805], AccurateRip returned [1AD0AEC7] (AR v2)
Copy OK
Track 9
Filename C:Music9. Touch Me My Dear.wav
Peak level 76.8 %
Extraction speed 1.7 X
Track quality 100.0 %
Test CRC 9C4C2C3E
Copy CRC 9C4C2C3E
Cannot be verified as accurate (confidence 2) [D31CD046], AccurateRip returned [F4287A6E] (AR v2)
Copy OK
Track 10
Filename C:Music10. I'm In Love.wav
Peak level 77.9 %
Extraction speed 1.7 X
Track quality 100.0 %
Test CRC 32F82BFB
Copy CRC 32F82BFB
Cannot be verified as accurate (confidence 2) [99C8B37F], AccurateRip returned [054A4ACA] (AR v2)
Copy OK
Track 11
Filename C:Music11. Night Of The Nights.wav
Peak level 72.3 %
Extraction speed 1.8 X
Track quality 100.0 %
Test CRC 6BEE7EAC
Copy CRC 6BEE7EAC
Cannot be verified as accurate (confidence 2) [424F508C], AccurateRip returned [38AF8128] (AR v2)
Copy OK
Track 12
Filename C:Music12. Japanese Girls.wav
Peak level 77.8 %
Extraction speed 1.8 X
Track quality 100.0 %
Test CRC 9E3FF954
Copy CRC 9E3FF954
Cannot be verified as accurate (confidence 2) [B2D6D657], AccurateRip returned [C90E5933] (AR v2)
Copy OK
No tracks could be verified as accurate
You may have a different pressing from the one(s) in the database
No errors occurred
End of status report
==== Log checksum 56B980F49DBAC4E4BB2A7395B774D7C3918922279288285A46C9FB94D237BB6A ====
[Профиль] [ЛС]
Показать сообщения:    

Текущее время: Сегодня 01:31

Часовой пояс: GMT + 3



Вы не можете начинать темы
Вы не можете отвечать на сообщения
Вы не можете редактировать свои сообщения
Вы не можете удалять свои сообщения
Вы не можете голосовать в опросах
Вы не можете прикреплять файлы к сообщениям
Вы не можете скачивать файлы