Золотые дни идет свободное скачивание без начисления Download
 

Офлайн

sergej644

Стаж:
5 лет 11 месяцев
Сообщений:
892

-Gary Мoore - Вlues Аnd Вeyond (4CD Box-Set)--
Год издания: 2017
Страна: UK
Жанр: Classic Rock, Hard Rock, Blues, Rhythm & Blues
Продолжительность: 04:19:51-Лейбл издания: BMG Rights Management/ Sanctuary Records
Страна-выпуска диска: EU
Номер по каталогу: BMGCAT105BOX-Формат: FLAC
Битрейт аудио: Lossless
Тип рипа: image +.cue
Наличие сканов в содержимом раздачи: да
-Одним из интереснейших музыкантов, которых подарили миру Британские острова, является Гэри Мур.
Бокс в виде коробки с беспрецедентными живыми записями и официальной биографией Гэри Мура «Не могу дождаться завтра», написанной Гарри Шапиро. Специальная коллекция его самых мощных и эмоциональных блюзовых студийных и концертных записей.

Трэклист

CD 1 | 01:16:07


01. Enough Of The Blues (4:47)
02. Tell Me Woman (2:52)
03. Stormy Monday (6:54)
04. That's Why I Play The Blues (4:03)
05. Power Of The Blues (2:29)
06. Ball And Chain (12:44)
07. Looking Back (2:19)
08. Surrender (9:35)
09. Cold Black Night (4:17)
10. There's A Hole (5:38)
11. Getaway Blues (3:42)
12. We Want Love (5:36)
13. Memory Pain (4:53)
14. The Prophet (6:19)

CD 2 | 01:15:41


01. You Upset Me Baby (3:14)
02. Bring My Baby Back (4:50)
03. I Can't Quit You Baby (5:47)
04. World Of Confusion (4:19)
05. Picture Of The Moon (7:11)
06. Can't Find My Baby (3:32)
07. Drowning In Tears (9:17)
08. Evil (2:41)
09. My Baby (She's So Good To Me) (3:25)
10. Ain't Got You (2:51)
11. Just Can't Let You Go (7:36)
12. How Many Lies (6:07)
13. Torn Inside (5:32)
14. Parisienne Walkways (Live) (9:18)

CD 3 | 00:52:23


01. Walking By Myself (4:26)
02. Oh Pretty Woman (4:54)
03. Need Your Love So Bad (8:35)
04. Since I Met You Baby (5:25)
05. Surrender (11:07)
06. Cold Black Night (5:17)
07. All Your Love (5:22)
08. Still Got The Blues (7:17)

CD 4 | 00:55:40


01. Too Tired (6:25)
02. The Sky Is Crying (13:55)
03. Further On Up The Road (8:23)
04. Fire (4:05)
05. The Blues Is Alright (9:05)
06. Enough Of The Blues (alternative) (6:44)
07. The Prophet (7:02)
-

Лог создания рипа

CD 1

Код:
Exact Audio Copy V1.1 from 23. June 2015
EAC extraction logfile from 28. December 2017, 23:05
Gary Moore / Blues And Beyond CD1
Used drive  : PIONEER BD-RW   BDR-209D   Adapter: 0  ID: 5
Read mode               : Secure
Utilize accurate stream : Yes
Defeat audio cache      : Yes
Make use of C2 pointers : No
Read offset correction                      : 667
Overread into Lead-In and Lead-Out          : No
Fill up missing offset samples with silence : Yes
Delete leading and trailing silent blocks   : No
Null samples used in CRC calculations       : Yes
Used interface                              : Installed external ASPI interface
Used output format              : User Defined Encoder
Selected bitrate                : 768 kBit/s
Quality                         : High
Add ID3 tag                     : No
Command line compressor         : C:\Program Files (x86)\Exact Audio Copy\FLAC\FLAC.EXE
Additional command line options : -6 -V -T "ARTIST=%artist%" -T "TITLE=%title%" -T "ALBUM=%albumtitle%" -T "DATE=%year%" -T "TRACKNUMBER=%tracknr%" -T "GENRE=%genre%" -T "COMMENT=%comment%" -T "BAND=%albuminterpret%" -T "ALBUMARTIST=%albuminterpret%" -T "COMPOSER=%composer%" %haslyrics%--tag-from-file=LYRICS="%lyricsfile%"%haslyrics% -T "DISCNUMBER=%cdnumber%" -T "TOTALDISCS=%totalcds%" -T "TOTALTRACKS=%numtracks%" %hascover%--picture="%coverfile%"%hascover% %source% -o %dest%
TOC of the extracted CD
     Track |   Start  |  Length  | Start sector | End sector
    ---------------------------------------------------------
        1  |  0:00.00 |  4:46.53 |         0    |    21502
        2  |  4:46.53 |  2:51.57 |     21503    |    34384
        3  |  7:38.35 |  6:53.58 |     34385    |    65417
        4  | 14:32.18 |  4:03.32 |     65418    |    83674
        5  | 18:35.50 |  2:29.09 |     83675    |    94858
        6  | 21:04.59 | 12:43.51 |     94859    |   152134
        7  | 33:48.35 |  2:18.67 |    152135    |   162551
        8  | 36:07.27 |  9:35.35 |    162552    |   205711
        9  | 45:42.62 |  4:17.12 |    205712    |   224998
       10  | 49:59.74 |  5:38.16 |    224999    |   250364
       11  | 55:38.15 |  3:41.41 |    250365    |   266980
       12  | 59:19.56 |  5:35.46 |    266981    |   292151
       13  | 64:55.27 |  4:52.63 |    292152    |   314114
       14  | 69:48.15 |  6:18.58 |    314115    |   342522
Range status and errors
Selected range
     Filename E:\MUSIC\Gary Moore - Blues And Beyond CD1.wav
     Peak level 100.0 %
     Extraction speed 2.2 X
     Range quality 100.0 %
     Test CRC BA34F31F
     Copy CRC BA34F31F
     Copy OK
No errors occurred
AccurateRip summary
Track  1  not present in database
Track  2  not present in database
Track  3  not present in database
Track  4  not present in database
Track  5  not present in database
Track  6  not present in database
Track  7  not present in database
Track  8  not present in database
Track  9  not present in database
Track 10  not present in database
Track 11  not present in database
Track 12  not present in database
Track 13  not present in database
Track 14  not present in database
None of the tracks are present in the AccurateRip database
End of status report

CD 2

Код:
Exact Audio Copy V1.1 from 23. June 2015
EAC extraction logfile from 28. December 2017, 23:27
Gary Moore / Blues And Beyond CD2
Used drive  : PIONEER BD-RW   BDR-209D   Adapter: 0  ID: 5
Read mode               : Secure
Utilize accurate stream : Yes
Defeat audio cache      : Yes
Make use of C2 pointers : No
Read offset correction                      : 667
Overread into Lead-In and Lead-Out          : No
Fill up missing offset samples with silence : Yes
Delete leading and trailing silent blocks   : No
Null samples used in CRC calculations       : Yes
Used interface                              : Installed external ASPI interface
Used output format              : User Defined Encoder
Selected bitrate                : 768 kBit/s
Quality                         : High
Add ID3 tag                     : No
Command line compressor         : C:\Program Files (x86)\Exact Audio Copy\FLAC\FLAC.EXE
Additional command line options : -6 -V -T "ARTIST=%artist%" -T "TITLE=%title%" -T "ALBUM=%albumtitle%" -T "DATE=%year%" -T "TRACKNUMBER=%tracknr%" -T "GENRE=%genre%" -T "COMMENT=%comment%" -T "BAND=%albuminterpret%" -T "ALBUMARTIST=%albuminterpret%" -T "COMPOSER=%composer%" %haslyrics%--tag-from-file=LYRICS="%lyricsfile%"%haslyrics% -T "DISCNUMBER=%cdnumber%" -T "TOTALDISCS=%totalcds%" -T "TOTALTRACKS=%numtracks%" %hascover%--picture="%coverfile%"%hascover% %source% -o %dest%
TOC of the extracted CD
     Track |   Start  |  Length  | Start sector | End sector
    ---------------------------------------------------------
        1  |  0:00.00 |  3:14.22 |         0    |    14571
        2  |  3:14.22 |  4:49.59 |     14572    |    36305
        3  |  8:04.06 |  5:47.11 |     36306    |    62341
        4  | 13:51.17 |  4:19.18 |     62342    |    81784
        5  | 18:10.35 |  7:11.15 |     81785    |   114124
        6  | 25:21.50 |  3:31.73 |    114125    |   130022
        7  | 28:53.48 |  9:16.56 |    130023    |   171778
        8  | 38:10.29 |  2:40.73 |    171779    |   183851
        9  | 40:51.27 |  3:25.27 |    183852    |   199253
       10  | 44:16.54 |  2:51.19 |    199254    |   212097
       11  | 47:07.73 |  7:36.24 |    212098    |   246321
       12  | 54:44.22 |  6:07.19 |    246322    |   273865
       13  | 60:51.41 |  5:32.00 |    273866    |   298765
       14  | 66:23.41 |  9:17.41 |    298766    |   340581
Range status and errors
Selected range
     Filename E:\MUSIC\Gary Moore - Blues And Beyond CD2.wav
     Peak level 100.0 %
     Extraction speed 8.6 X
     Range quality 99.9 %
     Test CRC EB689756
     Copy CRC EB689756
     Copy OK
No errors occurred
AccurateRip summary
Track  1  not present in database
Track  2  not present in database
Track  3  not present in database
Track  4  not present in database
Track  5  not present in database
Track  6  not present in database
Track  7  not present in database
Track  8  not present in database
Track  9  not present in database
Track 10  not present in database
Track 11  not present in database
Track 12  not present in database
Track 13  not present in database
Track 14  not present in database
None of the tracks are present in the AccurateRip database
End of status report

CD 3

Код:
Exact Audio Copy V1.1 from 23. June 2015
EAC extraction logfile from 29. December 2017, 6:39
Gary Moore / Blues And Beyond CD3
Used drive  : PIONEER BD-RW   BDR-209D   Adapter: 0  ID: 5
Read mode               : Secure
Utilize accurate stream : Yes
Defeat audio cache      : Yes
Make use of C2 pointers : No
Read offset correction                      : 667
Overread into Lead-In and Lead-Out          : No
Fill up missing offset samples with silence : Yes
Delete leading and trailing silent blocks   : No
Null samples used in CRC calculations       : Yes
Used interface                              : Installed external ASPI interface
Used output format              : User Defined Encoder
Selected bitrate                : 768 kBit/s
Quality                         : High
Add ID3 tag                     : No
Command line compressor         : C:\Program Files (x86)\Exact Audio Copy\FLAC\FLAC.EXE
Additional command line options : -6 -V -T "ARTIST=%artist%" -T "TITLE=%title%" -T "ALBUM=%albumtitle%" -T "DATE=%year%" -T "TRACKNUMBER=%tracknr%" -T "GENRE=%genre%" -T "COMMENT=%comment%" -T "BAND=%albuminterpret%" -T "ALBUMARTIST=%albuminterpret%" -T "COMPOSER=%composer%" %haslyrics%--tag-from-file=LYRICS="%lyricsfile%"%haslyrics% -T "DISCNUMBER=%cdnumber%" -T "TOTALDISCS=%totalcds%" -T "TOTALTRACKS=%numtracks%" %hascover%--picture="%coverfile%"%hascover% %source% -o %dest%
TOC of the extracted CD
     Track |   Start  |  Length  | Start sector | End sector
    ---------------------------------------------------------
        1  |  0:00.00 |  4:26.19 |         0    |    19968
        2  |  4:26.19 |  4:53.73 |     19969    |    42016
        3  |  9:20.17 |  8:34.39 |     42017    |    80605
        4  | 17:54.56 |  5:25.22 |     80606    |   105002
        5  | 23:20.03 | 11:07.25 |    105003    |   155052
        6  | 34:27.28 |  5:16.43 |    155053    |   178795
        7  | 39:43.71 |  5:21.50 |    178796    |   202920
        8  | 45:05.46 |  7:17.28 |    202921    |   235723
Range status and errors
Selected range
     Filename E:\MUSIC\Gary Moore - Blues And Beyond CD3.wav
     Peak level 95.5 %
     Extraction speed 7.4 X
     Range quality 100.0 %
     Test CRC 90DE14F2
     Copy CRC 90DE14F2
     Copy OK
No errors occurred
AccurateRip summary
Track  1  not present in database
Track  2  not present in database
Track  3  not present in database
Track  4  not present in database
Track  5  not present in database
Track  6  not present in database
Track  7  not present in database
Track  8  not present in database
None of the tracks are present in the AccurateRip database
End of status report

CD 4

Код:
Exact Audio Copy V1.1 from 23. June 2015
EAC extraction logfile from 29. December 2017, 6:56
Gary Moore / Blues And Beyond CD4
Used drive  : PIONEER BD-RW   BDR-209D   Adapter: 0  ID: 5
Read mode               : Secure
Utilize accurate stream : Yes
Defeat audio cache      : Yes
Make use of C2 pointers : No
Read offset correction                      : 667
Overread into Lead-In and Lead-Out          : No
Fill up missing offset samples with silence : Yes
Delete leading and trailing silent blocks   : No
Null samples used in CRC calculations       : Yes
Used interface                              : Installed external ASPI interface
Used output format              : User Defined Encoder
Selected bitrate                : 768 kBit/s
Quality                         : High
Add ID3 tag                     : No
Command line compressor         : C:\Program Files (x86)\Exact Audio Copy\FLAC\FLAC.EXE
Additional command line options : -6 -V -T "ARTIST=%artist%" -T "TITLE=%title%" -T "ALBUM=%albumtitle%" -T "DATE=%year%" -T "TRACKNUMBER=%tracknr%" -T "GENRE=%genre%" -T "COMMENT=%comment%" -T "BAND=%albuminterpret%" -T "ALBUMARTIST=%albuminterpret%" -T "COMPOSER=%composer%" %haslyrics%--tag-from-file=LYRICS="%lyricsfile%"%haslyrics% -T "DISCNUMBER=%cdnumber%" -T "TOTALDISCS=%totalcds%" -T "TOTALTRACKS=%numtracks%" %hascover%--picture="%coverfile%"%hascover% %source% -o %dest%
TOC of the extracted CD
     Track |   Start  |  Length  | Start sector | End sector
    ---------------------------------------------------------
        1  |  0:00.00 |  6:25.27 |         0    |    28901
        2  |  6:25.27 | 13:55.36 |     28902    |    91562
        3  | 20:20.63 |  8:23.30 |     91563    |   129317
        4  | 28:44.18 |  4:04.56 |    129318    |   147673
        5  | 32:48.74 |  9:04.46 |    147674    |   188519
        6  | 41:53.45 |  6:43.56 |    188520    |   218800
        7  | 48:37.26 |  7:02.31 |    218801    |   250481
Range status and errors
Selected range
     Filename E:\MUSIC\Gary Moore - Blues And Beyond CD4.wav
     Peak level 93.7 %
     Extraction speed 7.5 X
     Range quality 100.0 %
     Test CRC 40E1F747
     Copy CRC 40E1F747
     Copy OK
No errors occurred
AccurateRip summary
Track  1  not present in database
Track  2  not present in database
Track  3  not present in database
Track  4  not present in database
Track  5  not present in database
Track  6  not present in database
Track  7  not present in database
None of the tracks are present in the AccurateRip database
End of status report

Индексная карта (non-compilant .cue)

CD 1

Код:
REM GENRE Blues Rock
REM DATE 2017
REM DISCID B811D60E
REM COMMENT ExactAudioCopy v1.1
PERFORMER "Gary Moore"
TITLE "Blues And Beyond CD1"
FILE "Gary Moore - Blues And Beyond CD1.flac" WAVE
  TRACK 01 AUDIO
    TITLE "Enough Of The Blues"
    INDEX 01 00:00:00
  TRACK 02 AUDIO
    TITLE "Tell Me Woman"
    INDEX 00 04:46:46
    INDEX 01 04:46:53
  TRACK 03 AUDIO
    TITLE "Stormy Monday"
    INDEX 00 07:37:06
    INDEX 01 07:38:35
  TRACK 04 AUDIO
    TITLE "That's Why I Play The Blues"
    INDEX 00 14:31:48
    INDEX 01 14:32:18
  TRACK 05 AUDIO
    TITLE "Power Of The Blues"
    INDEX 00 18:35:43
    INDEX 01 18:35:50
  TRACK 06 AUDIO
    TITLE "Ball And Chain"
    INDEX 00 21:04:31
    INDEX 01 21:04:59
  TRACK 07 AUDIO
    TITLE "Looking Back"
    INDEX 00 33:48:26
    INDEX 01 33:48:35
  TRACK 08 AUDIO
    TITLE "Surrender"
    INDEX 00 36:06:67
    INDEX 01 36:07:27
  TRACK 09 AUDIO
    TITLE "Cold Black Night"
    INDEX 00 45:42:58
    INDEX 01 45:42:62
  TRACK 10 AUDIO
    TITLE "There's A Hole"
    INDEX 00 49:59:73
    INDEX 01 49:59:74
  TRACK 11 AUDIO
    TITLE "Getaway Blues"
    INDEX 00 55:37:66
    INDEX 01 55:38:15
  TRACK 12 AUDIO
    TITLE "We Want Love"
    INDEX 00 59:19:46
    INDEX 01 59:19:56
  TRACK 13 AUDIO
    TITLE "Memory Pain"
    INDEX 00 64:54:38
    INDEX 01 64:55:27
  TRACK 14 AUDIO
    TITLE "The Prophet"
    INDEX 00 69:47:39
    INDEX 01 69:48:15

CD 2

Код:
REM GENRE Blues Rock
REM DATE 2017
REM DISCID DD11BD0E
REM COMMENT ExactAudioCopy v1.1
PERFORMER "Gary Moore"
TITLE "Blues And Beyond CD2"
FILE "Gary Moore - Blues And Beyond CD2.flac" WAVE
  TRACK 01 AUDIO
    TITLE "You Upset Me Baby"
    INDEX 01 00:00:00
  TRACK 02 AUDIO
    TITLE "Bring My Baby Back"
    INDEX 00 03:13:52
    INDEX 01 03:14:22
  TRACK 03 AUDIO
    TITLE "I Can't Quit You Baby"
    INDEX 00 08:03:70
    INDEX 01 08:04:06
  TRACK 04 AUDIO
    TITLE "World Of Confusion"
    INDEX 00 13:50:49
    INDEX 01 13:51:17
  TRACK 05 AUDIO
    TITLE "Picture Of The Moon"
    INDEX 00 18:10:11
    INDEX 01 18:10:35
  TRACK 06 AUDIO
    TITLE "Can't Find My Baby"
    INDEX 00 25:21:44
    INDEX 01 25:21:50
  TRACK 07 AUDIO
    TITLE "Drowning In Tears"
    INDEX 00 28:53:45
    INDEX 01 28:53:48
  TRACK 08 AUDIO
    TITLE "Evil"
    INDEX 00 38:10:25
    INDEX 01 38:10:29
  TRACK 09 AUDIO
    TITLE "My Baby (She's So Good To Me)"
    INDEX 00 40:51:23
    INDEX 01 40:51:27
  TRACK 10 AUDIO
    TITLE "Ain't Got You"
    INDEX 00 44:15:70
    INDEX 01 44:16:54
  TRACK 11 AUDIO
    TITLE "Just Can't Let You Go"
    INDEX 00 47:07:67
    INDEX 01 47:07:73
  TRACK 12 AUDIO
    TITLE "How Many Lies"
    INDEX 00 54:44:20
    INDEX 01 54:44:22
  TRACK 13 AUDIO
    TITLE "Torn Inside"
    INDEX 00 60:51:36
    INDEX 01 60:51:41
  TRACK 14 AUDIO
    TITLE "Parisienne Walkways (Live)"
    INDEX 00 66:23:24
    INDEX 01 66:23:41

CD 3

Код:
REM GENRE Blues
REM DATE 2017
REM DISCID 670C4608
REM COMMENT ExactAudioCopy v1.1
PERFORMER "Gary Moore"
TITLE "Blues And Beyond CD3"
FILE "Gary Moore - Blues And Beyond CD3.flac" WAVE
  TRACK 01 AUDIO
    TITLE "Walking By Myself"
    INDEX 01 00:00:00
  TRACK 02 AUDIO
    TITLE "Oh Pretty Woman"
    INDEX 01 04:26:19
  TRACK 03 AUDIO
    TITLE "Need Your Love So Bad"
    INDEX 01 09:20:17
  TRACK 04 AUDIO
    TITLE "Since I Met You Baby"
    INDEX 01 17:54:56
  TRACK 05 AUDIO
    TITLE "Surrender"
    INDEX 01 23:20:03
  TRACK 06 AUDIO
    TITLE "Cold Black Night"
    INDEX 01 34:27:28
  TRACK 07 AUDIO
    TITLE "All Your Love"
    INDEX 01 39:43:71
  TRACK 08 AUDIO
    TITLE "Still Got The Blues"
    INDEX 01 45:05:46

CD 4

Код:
REM GENRE Blues
REM DATE 2017
REM DISCID 5E0D0B07
REM COMMENT ExactAudioCopy v1.1
PERFORMER "Gary Moore"
TITLE "Blues And Beyond CD4"
FILE "Gary Moore - Blues And Beyond CD4.flac" WAVE
  TRACK 01 AUDIO
    TITLE "Too Tired"
    INDEX 01 00:00:00
  TRACK 02 AUDIO
    TITLE "The Sky Is Crying"
    INDEX 01 06:25:27
  TRACK 03 AUDIO
    TITLE "Further On Up The Road"
    INDEX 01 20:20:63
  TRACK 04 AUDIO
    TITLE "Fire"
    INDEX 01 28:44:18
  TRACK 05 AUDIO
    TITLE "The Blues Is Alright"
    INDEX 01 32:48:74
  TRACK 06 AUDIO
    TITLE "Enough Of The Blues (alternative)"
    INDEX 01 41:53:45
  TRACK 07 AUDIO
    TITLE "The Prophet"
    INDEX 01 48:37:26
--

_________________
Разница между теорией и практикой в том, что теоретически разницы между теорией и практикой нет, а на практике она есть.
[Профиль] [ЛС]
Показать сообщения:    

Текущее время: Сегодня 01:11

Часовой пояс: GMT + 3



Вы не можете начинать темы
Вы не можете отвечать на сообщения
Вы не можете редактировать свои сообщения
Вы не можете удалять свои сообщения
Вы не можете голосовать в опросах
Вы не можете прикреплять файлы к сообщениям
Вы не можете скачивать файлы