Золотые дни идет свободное скачивание без начисления Download
 

Офлайн

sergej644

Стаж:
5 лет 4 месяца
Сообщений:
853

-Tom Keifer - The Way Life Goes--
Год издания: 2013
Страна: USA
Жанр: Hard Rock
Продолжительность: 00:52:03-Лейбл издания: Merovee Records
Страна-выпуска диска: USA
Номер по каталогу: MRVEE40-Формат: FLAC
Битрейт аудио: Lossless
Тип рипа: image +.cue
Наличие сканов в содержимом раздачи: да
-

Трэклист


01. Solid Ground (4:08)
02. A Different Light (3:57)
03. It's Not Enough (3:06)
04. Cold Day In Hell (3:42)
05. Thick And Thin (3:45)
06. Ask Me Yesterday (3:56)
07. Fools Paradise (3:26)
08. The Flower Song (4:11)
09. Mood Elevator (3:36)
10. Welcome To My Mind (3:25)
11. You Showed Me (4:21)
12. Ain't That A Bitch (3:10)
13. The Way Life Goes (3:45)
14. Babylon (3:35)
-

Лог создания рипа

Код:
Exact Audio Copy V1.0 beta 3 from 29. August 2011
EAC extraction logfile from 1. June 2013, 21:49
Tom Keifer / The Way Life Goes
Used drive  : PLEXTOR DVDR   PX-860A   Adapter: 0  ID: 3
Read mode               : Secure
Utilize accurate stream : Yes
Defeat audio cache      : Yes
Make use of C2 pointers : No
Read offset correction                      : 96
Overread into Lead-In and Lead-Out          : No
Fill up missing offset samples with silence : Yes
Delete leading and trailing silent blocks   : No
Null samples used in CRC calculations       : Yes
Used interface                              : Installed external ASPI interface
Used output format              : User Defined Encoder
Selected bitrate                : 1024 kBit/s
Quality                         : High
Add ID3 tag                     : Yes
Command line compressor         : E:\Program Files (x86)\Exact Audio Copy\Flac\flac.exe
Additional command line options : -V -8 -T "Date=%year%" -T "Genre=%genre%" %source%
TOC of the extracted CD
     Track |   Start  |  Length  | Start sector | End sector
    ---------------------------------------------------------
        1  |  0:00.00 |  4:08.04 |         0    |    18603
        2  |  4:08.04 |  3:57.04 |     18604    |    36382
        3  |  8:05.08 |  3:05.52 |     36383    |    50309
        4  | 11:10.60 |  3:42.04 |     50310    |    66963
        5  | 14:52.64 |  3:44.67 |     66964    |    83830
        6  | 18:37.56 |  3:56.34 |     83831    |   101564
        7  | 22:34.15 |  3:25.43 |    101565    |   116982
        8  | 25:59.58 |  4:11.07 |    116983    |   135814
        9  | 30:10.65 |  3:36.16 |    135815    |   152030
       10  | 33:47.06 |  3:25.24 |    152031    |   167429
       11  | 37:12.30 |  4:21.11 |    167430    |   187015
       12  | 41:33.41 |  3:09.49 |    187016    |   201239
       13  | 44:43.15 |  3:45.34 |    201240    |   218148
       14  | 48:28.49 |  3:34.57 |    218149    |   234255
Range status and errors
Selected range
     Filename D:\MUSIC\Tom Keifer - The Way Life Goes.wav
     Peak level 98.8 %
     Extraction speed 7.6 X
     Range quality 100.0 %
     Test CRC 252D0B0B
     Copy CRC 252D0B0B
     Copy OK
No errors occurred
AccurateRip summary
Track  1  not present in database
Track  2  not present in database
Track  3  not present in database
Track  4  not present in database
Track  5  not present in database
Track  6  not present in database
Track  7  not present in database
Track  8  not present in database
Track  9  not present in database
Track 10  not present in database
Track 11  not present in database
Track 12  not present in database
Track 13  not present in database
Track 14  not present in database
None of the tracks are present in the AccurateRip database
End of status report

Индексная карта (non-compilant .cue)

Код:
REM GENRE "Hard Rock"
REM DATE 2013
REM DISCID C10C330E
REM COMMENT "ExactAudioCopy v1.0b3"
PERFORMER "Tom Keifer"
TITLE "The Way Life Goes"
FILE "Tom Keifer - The Way Life Goes.flac" WAVE
  TRACK 01 AUDIO
    TITLE "Solid Ground"
    PERFORMER "Tom Keifer"
    ISRC USZZ41200801
    INDEX 01 00:00:00
  TRACK 02 AUDIO
    TITLE "A Different Light"
    PERFORMER "Tom Keifer"
    ISRC USZZ41200802
    INDEX 00 04:06:04
    INDEX 01 04:08:04
  TRACK 03 AUDIO
    TITLE "It's Not Enough"
    PERFORMER "Tom Keifer"
    ISRC USZZ41200803
    INDEX 00 08:03:08
    INDEX 01 08:05:08
  TRACK 04 AUDIO
    TITLE "Cold Day In Hell"
    PERFORMER "Tom Keifer"
    ISRC USZZ41200804
    INDEX 00 11:08:60
    INDEX 01 11:10:60
  TRACK 05 AUDIO
    TITLE "Thick And Thin"
    PERFORMER "Tom Keifer"
    ISRC USZZ41200805
    INDEX 00 14:50:64
    INDEX 01 14:52:64
  TRACK 06 AUDIO
    TITLE "Ask Me Yesterday"
    PERFORMER "Tom Keifer"
    ISRC USZZ41200806
    INDEX 00 18:35:56
    INDEX 01 18:37:56
  TRACK 07 AUDIO
    TITLE "Fools Paradise"
    PERFORMER "Tom Keifer"
    ISRC USZZ41200807
    INDEX 00 22:32:15
    INDEX 01 22:34:15
  TRACK 08 AUDIO
    TITLE "The Flower Song"
    PERFORMER "Tom Keifer"
    ISRC USZZ41200808
    INDEX 00 25:57:58
    INDEX 01 25:59:58
  TRACK 09 AUDIO
    TITLE "Mood Elevator"
    PERFORMER "Tom Keifer"
    ISRC USZZ41200809
    INDEX 00 30:08:65
    INDEX 01 30:10:65
  TRACK 10 AUDIO
    TITLE "Welcome To My Mind"
    PERFORMER "Tom Keifer"
    ISRC USZZ41200810
    INDEX 00 33:45:06
    INDEX 01 33:47:06
  TRACK 11 AUDIO
    TITLE "You Showed Me"
    PERFORMER "Tom Keifer"
    ISRC USZZ41200811
    INDEX 00 37:10:30
    INDEX 01 37:12:30
  TRACK 12 AUDIO
    TITLE "Ain't That A Bitch"
    PERFORMER "Tom Keifer"
    ISRC USZZ41200812
    INDEX 00 41:31:41
    INDEX 01 41:33:41
  TRACK 13 AUDIO
    TITLE "The Way Life Goes"
    PERFORMER "Tom Keifer"
    ISRC USZZ41200813
    INDEX 00 44:41:15
    INDEX 01 44:43:15
  TRACK 14 AUDIO
    TITLE "Babylon"
    PERFORMER "Tom Keifer"
    ISRC USZZ41200814
    INDEX 00 48:26:50
    INDEX 01 48:28:49

Информация о релизе:

Первый сольный альбом экс солиста знаменитой группы Cinderella
--

_________________
Разница между теорией и практикой в том, что теоретически разницы между теорией и практикой нет, а на практике она есть.
[Профиль] [ЛС]
Показать сообщения:    

Текущее время: Сегодня 17:45

Часовой пояс: GMT + 3



Вы не можете начинать темы
Вы не можете отвечать на сообщения
Вы не можете редактировать свои сообщения
Вы не можете удалять свои сообщения
Вы не можете голосовать в опросах
Вы не можете прикреплять файлы к сообщениям
Вы не можете скачивать файлы