(Heavy Metal) Iron Maiden - The Book of Souls Live Chapter (2CD) - 2017 [WavPack, image +.cue, lossless] :: Bit-Torrent Трекер Emtrek.org
 
Золотые дни идет свободное скачивание без начисления Download
 

Офлайн

sergej644

Стаж:
5 лет 7 месяцев
Сообщений:
868

-Iron Maiden - The Book of Souls Live Chapter (2CD)--
Год издания: 2017
Страна: UK
Жанр: Heavy Metal
Продолжительность: 01:40:59-Лейбл издания: Parlophone Records.
Страна-выпуска диска: EU
Номер по каталогу: 0190295760885-Формат: WavPack
Битрейт аудио: Lossless
Тип рипа: image +.cue
Наличие сканов в содержимом раздачи: да
-

Трэклист

CD 1 | 00:51:20


01. If Eternity Should Fail (7:47)
02. Speed Of Light (5:09)
03. Wrathchild (3:00)
04. Children Of The Damned (5:15)
05. Death Or Glory (5:16)
06. The Red And The Black (13:17)
07. The Trooper (4:05)
08. Powerslave (7:32)

CD 2 | 00:49:39


01. The Great Unknown (6:50)
02. The Book Of Souls (10:50)
03. Fear Of The Dark (7:34)
04. Iron Maiden (6:05)
05. The Number Of The Beast (5:06)
06. Blood Brothers (7:35)
07. Wasted Years (5:39)
-

Лог создания рипа

CD 1

Код:
Exact Audio Copy V1.3 from 2. September 2016
EAC extraction logfile from 18. November 2017, 19:06
Iron Maiden / The Book Of Souls: The Live Chapter CD1
Used drive  : TSSTcorpBDDVDW SE-506BB   Adapter: 2  ID: 0
Read mode               : Secure
Utilize accurate stream : Yes
Defeat audio cache      : Yes
Make use of C2 pointers : No
Read offset correction                      : 6
Overread into Lead-In and Lead-Out          : No
Fill up missing offset samples with silence : Yes
Delete leading and trailing silent blocks   : No
Null samples used in CRC calculations       : Yes
Used interface                              : Installed external ASPI interface
Used output format              : User Defined Encoder
Selected bitrate                : 768 kBit/s
Quality                         : High
Add ID3 tag                     : No
Command line compressor         : C:\Progs\wavpack\wavpack.exe
Additional command line options : -h -d %source%
TOC of the extracted CD
     Track |   Start  |  Length  | Start sector | End sector
    ---------------------------------------------------------
        1  |  0:00.00 |  7:46.43 |         0    |    34992
        2  |  7:46.43 |  5:08.64 |     34993    |    58156
        3  | 12:55.32 |  2:59.73 |     58157    |    71654
        4  | 15:55.30 |  5:14.39 |     71655    |    95243
        5  | 21:09.69 |  5:15.53 |     95244    |   118921
        6  | 26:25.47 | 13:17.28 |    118922    |   178724
        7  | 39:43.00 |  4:05.12 |    178725    |   197111
        8  | 43:48.12 |  7:31.58 |    197112    |   230994
Range status and errors
Selected range
     Filename E:\Iron Maiden - The Book Of Souls- The Live Chapter\Iron Maiden - The Book Of Souls- The Live Chapter CD1.wav
     Peak level 100.0 %
     Extraction speed 1.8 X
     Range quality 100.0 %
     Test CRC 541C4756
     Copy CRC 541C4756
     Copy OK
No errors occurred
AccurateRip summary
Track  1  not present in database
Track  2  not present in database
Track  3  not present in database
Track  4  not present in database
Track  5  not present in database
Track  6  not present in database
Track  7  not present in database
Track  8  not present in database
None of the tracks are present in the AccurateRip database
End of status report
---- CUETools DB Plugin V2.1.6
[CTDB TOCID: 6WdAvr_bBUYyOYTDlKia2BZPAIg-] found
Submit result: 6WdAvr_bBUYyOYTDlKia2BZPAIg- has been confirmed
Track | CTDB Status
  1   | (38/38) Accurately ripped
  2   | (38/38) Accurately ripped
  3   | (38/38) Accurately ripped
  4   | (38/38) Accurately ripped
  5   | (38/38) Accurately ripped
  6   | (38/38) Accurately ripped
  7   | (38/38) Accurately ripped
  8   | (38/38) Accurately ripped

CD 2

Код:
Exact Audio Copy V1.3 from 2. September 2016
EAC extraction logfile from 18. November 2017, 20:28
Iron Maiden / The Book Of Souls: The Live Chapter CD2
Used drive  : TSSTcorpBDDVDW SE-506BB   Adapter: 2  ID: 0
Read mode               : Secure
Utilize accurate stream : Yes
Defeat audio cache      : Yes
Make use of C2 pointers : No
Read offset correction                      : 6
Overread into Lead-In and Lead-Out          : No
Fill up missing offset samples with silence : Yes
Delete leading and trailing silent blocks   : No
Null samples used in CRC calculations       : Yes
Used interface                              : Installed external ASPI interface
Used output format              : User Defined Encoder
Selected bitrate                : 768 kBit/s
Quality                         : High
Add ID3 tag                     : No
Command line compressor         : C:\Progs\wavpack\wavpack.exe
Additional command line options : -h -d %source%
TOC of the extracted CD
     Track |   Start  |  Length  | Start sector | End sector
    ---------------------------------------------------------
        1  |  0:00.00 |  6:50.30 |         0    |    30779
        2  |  6:50.30 | 10:49.46 |     30780    |    79500
        3  | 17:40.01 |  7:34.19 |     79501    |   113569
        4  | 25:14.20 |  6:05.22 |    113570    |   140966
        5  | 31:19.42 |  5:06.16 |    140967    |   163932
        6  | 36:25.58 |  7:35.06 |    163933    |   198063
        7  | 44:00.64 |  5:38.41 |    198064    |   223454
Range status and errors
Selected range
     Filename E:\Iron Maiden - The Book Of Souls- The Live Chapter\Iron Maiden - The Book Of Souls- The Live Chapter CD2.wav
     Peak level 100.0 %
     Extraction speed 1.8 X
     Range quality 99.9 %
     Test CRC 93F82F1E
     Copy CRC 93F82F1E
     Copy OK
No errors occurred
AccurateRip summary
Track  1  not present in database
Track  2  not present in database
Track  3  not present in database
Track  4  not present in database
Track  5  not present in database
Track  6  not present in database
Track  7  not present in database
None of the tracks are present in the AccurateRip database
End of status report
---- CUETools DB Plugin V2.1.6
[CTDB TOCID: 9.sD14Z45cFuXuRFjFfUwrk_CIQ-] found
Submit result: 9.sD14Z45cFuXuRFjFfUwrk_CIQ- has been confirmed
Track | CTDB Status
  1   | (38/38) Accurately ripped
  2   | (38/38) Accurately ripped
  3   | (38/38) Accurately ripped
  4   | (38/38) Accurately ripped
  5   | (38/38) Accurately ripped
  6   | (38/38) Accurately ripped
  7   | (38/38) Accurately ripped

Индексная карта (non-compilant .cue)

CD 1

Код:
REM GENRE "Heavy Metal"
REM DATE 2017
REM DISCID 7B0C0708
REM COMMENT "ExactAudioCopy v1.3"
CATALOG 0190295760885
PERFORMER "Iron Maiden"
TITLE "The Book Of Souls: The Live Chapter CD1"
REM COMPOSER ""
FILE "Iron Maiden - The Book Of Souls- The Live Chapter CD1.wv" WAVE
  TRACK 01 AUDIO
    TITLE "If Eternity Should Fail"
    PERFORMER "Iron Maiden"
    REM COMPOSER ""
    ISRC GBCHB1700002
    INDEX 01 00:00:00
  TRACK 02 AUDIO
    TITLE "Speed Of Light"
    PERFORMER "Iron Maiden"
    REM COMPOSER ""
    ISRC GBCHB1700003
    INDEX 01 07:46:43
  TRACK 03 AUDIO
    TITLE "Wrathchild"
    PERFORMER "Iron Maiden"
    REM COMPOSER ""
    ISRC GBCHB1700004
    INDEX 00 12:55:30
    INDEX 01 12:55:32
  TRACK 04 AUDIO
    TITLE "Children Of The Damned"
    PERFORMER "Iron Maiden"
    REM COMPOSER ""
    ISRC GBCHB1700005
    INDEX 00 15:55:28
    INDEX 01 15:55:30
  TRACK 05 AUDIO
    TITLE "Death Or Glory"
    PERFORMER "Iron Maiden"
    REM COMPOSER ""
    ISRC GBCHB1700007
    INDEX 00 21:09:67
    INDEX 01 21:09:69
  TRACK 06 AUDIO
    TITLE "The Red And The Black"
    PERFORMER "Iron Maiden"
    REM COMPOSER ""
    ISRC GBCHB1700007
    INDEX 00 26:25:45
    INDEX 01 26:25:47
  TRACK 07 AUDIO
    TITLE "The Trooper"
    PERFORMER "Iron Maiden"
    REM COMPOSER ""
    ISRC GBCHB1700009
    INDEX 00 39:42:73
    INDEX 01 39:43:00
  TRACK 08 AUDIO
    TITLE "Powerslave"
    PERFORMER "Iron Maiden"
    REM COMPOSER ""
    ISRC GBCHB1700010
    INDEX 00 43:48:10
    INDEX 01 43:48:12

CD 2

Код:
REM GENRE "Heavy Metal"
REM DATE 2017
REM DISCID 510BA307
REM COMMENT "ExactAudioCopy v1.3"
CATALOG 0190295760885
PERFORMER "Iron Maiden"
TITLE "The Book Of Souls: The Live Chapter CD2"
REM COMPOSER ""
FILE "Iron Maiden - The Book Of Souls- The Live Chapter CD2.wv" WAVE
  TRACK 01 AUDIO
    TITLE "The Great Unknown"
    PERFORMER "Iron Maiden"
    REM COMPOSER ""
    ISRC GBCHB1700011
    INDEX 01 00:00:00
  TRACK 02 AUDIO
    TITLE "The Book Of Souls"
    PERFORMER "Iron Maiden"
    REM COMPOSER ""
    ISRC GBCHB1700012
    INDEX 01 06:50:30
  TRACK 03 AUDIO
    TITLE "Fear Of The Dark"
    PERFORMER "Iron Maiden"
    REM COMPOSER ""
    ISRC GBCHB1700012
    INDEX 01 17:40:01
  TRACK 04 AUDIO
    TITLE "Iron Maiden"
    PERFORMER "Iron Maiden"
    REM COMPOSER ""
    ISRC GBCHB1700014
    INDEX 01 25:14:20
  TRACK 05 AUDIO
    TITLE "The Number Of The Beast"
    PERFORMER "Iron Maiden"
    REM COMPOSER ""
    ISRC GBCHB1700015
    INDEX 01 31:19:42
  TRACK 06 AUDIO
    TITLE "Blood Brothers"
    PERFORMER "Iron Maiden"
    REM COMPOSER ""
    ISRC GBCHB1700016
    INDEX 01 36:25:58
  TRACK 07 AUDIO
    TITLE "Wasted Years"
    PERFORMER "Iron Maiden"
    REM COMPOSER ""
    ISRC GBCHB1700017
    INDEX 01 44:00:64

Состав группы:

Bruce Dickinson - Vocals
Janick Gers - Guitars
Dave Murray - Guitars
Adrian Smith - Guitars
Steve Harris - Bass, Keyboards
Nicko McBrain - Drums Label: Parlophone Records. 0190295760885
Released 17 November 2017.
--

_________________
Разница между теорией и практикой в том, что теоретически разницы между теорией и практикой нет, а на практике она есть.
[Профиль] [ЛС]
Показать сообщения:    

Текущее время: Сегодня 11:16

Часовой пояс: GMT + 3



Вы не можете начинать темы
Вы не можете отвечать на сообщения
Вы не можете редактировать свои сообщения
Вы не можете удалять свои сообщения
Вы не можете голосовать в опросах
Вы не можете прикреплять файлы к сообщениям
Вы не можете скачивать файлы