Золотые дни идет свободное скачивание без начисления Download
 

Офлайн

sergej644

Стаж:
5 лет 4 месяца
Сообщений:
853

-Exit Eden - Rhapsodies in Black--
Год издания: 2017
Страна: International
Жанр: Neoclassical Power Metal
Продолжительность: 00:47:01-Лейбл издания: Starwatch International
Страна-выпуска диска: EU
Номер по каталогу: 8900124-Формат: FLAC
Битрейт аудио: Lossless
Тип рипа: image +.cue
Наличие сканов в содержимом раздачи: да
-

Трэклист


01. Question of Time (4:29)
02. Unfaithful (3:49)
03. Incomplete (3:56)
04. Impossible (4:07)
05. Frozen feat. Simone Simons (5:36)
06. Heaven (3:45)
07. Firework (4:18)
08. Skyfall feat. Simone Simons (4:36)
09. Total Eclipse of the Heart feat. Rick Altzi (4:25)
10. Paparazzi (4:10)
11. Fade to Grey (3:51)
-

Лог создания рипа

Код:
Exact Audio Copy V1.1 from 23. June 2015
EAC extraction logfile from 5. August 2017, 0:02
Exit Eden / Rhapsodies in Black
Used drive  : ATAPI   DVD A  DH16ABSH   Adapter: 2  ID: 0
Read mode               : Secure
Utilize accurate stream : Yes
Defeat audio cache      : Yes
Make use of C2 pointers : No
Read offset correction                      : 6
Overread into Lead-In and Lead-Out          : No
Fill up missing offset samples with silence : Yes
Delete leading and trailing silent blocks   : No
Null samples used in CRC calculations       : Yes
Used interface                              : Installed external ASPI interface
Used output format              : User Defined Encoder
Selected bitrate                : 1024 kBit/s
Quality                         : High
Add ID3 tag                     : No
Command line compressor         : C:\Program Files (x86)\Exact Audio Copy\FLAC\FLAC.EXE
Additional command line options : -6 -V -T "ARTIST=%artist%" -T "TITLE=%title%" -T "ALBUM=%albumtitle%" -T "DATE=%year%" -T "TRACKNUMBER=%tracknr%" -T "GENRE=%genre%" -T "COMMENT=%comment%" -T "BAND=%albuminterpret%" -T "ALBUMARTIST=%albuminterpret%" -T "COMPOSER=%composer%" %haslyrics%--tag-from-file=LYRICS="%lyricsfile%"%haslyrics% -T "DISCNUMBER=%cdnumber%" -T "TOTALDISCS=%totalcds%" -T "TOTALTRACKS=%numtracks%" %hascover%--picture="%coverfile%"%hascover% %source% -o %dest%
TOC of the extracted CD
     Track |   Start  |  Length  | Start sector | End sector
    ---------------------------------------------------------
        1  |  0:00.00 |  4:28.53 |         0    |    20152
        2  |  4:28.53 |  3:49.02 |     20153    |    37329
        3  |  8:17.55 |  3:55.40 |     37330    |    54994
        4  | 12:13.20 |  4:06.47 |     54995    |    73491
        5  | 16:19.67 |  5:35.71 |     73492    |    98687
        6  | 21:55.63 |  3:44.72 |     98688    |   115559
        7  | 25:40.60 |  4:17.74 |    115560    |   134908
        8  | 29:58.59 |  4:35.38 |    134909    |   155571
        9  | 34:34.22 |  4:25.13 |    155572    |   175459
       10  | 38:59.35 |  4:10.32 |    175460    |   194241
       11  | 43:09.67 |  3:51.34 |    194242    |   211600
Range status and errors
Selected range
     Filename E:\toydollsru\Exit Eden - Rhapsodies in Black.wav
     Peak level 89.2 %
     Extraction speed 2.9 X
     Range quality 99.9 %
     Test CRC 20FDABBC
     Copy CRC 20FDABBC
     Copy OK
No errors occurred
AccurateRip summary
Track  1  not present in database
Track  2  not present in database
Track  3  not present in database
Track  4  not present in database
Track  5  not present in database
Track  6  not present in database
Track  7  not present in database
Track  8  not present in database
Track  9  not present in database
Track 10  not present in database
Track 11  not present in database
None of the tracks are present in the AccurateRip database
End of status report
---- CUETools DB Plugin V2.1.6
[CTDB TOCID: HcsLKf34a2g2mjzXD8U2wGwtWJE-] found
Submit result: HcsLKf34a2g2mjzXD8U2wGwtWJE- has been confirmed
Track | CTDB Status
  1   | (3/3) Accurately ripped
  2   | (3/3) Accurately ripped
  3   | (3/3) Accurately ripped
  4   | (3/3) Accurately ripped
  5   | (3/3) Accurately ripped
  6   | (3/3) Accurately ripped
  7   | (3/3) Accurately ripped
  8   | (3/3) Accurately ripped
  9   | (3/3) Accurately ripped
10   | (3/3) Accurately ripped
11   | (3/3) Accurately ripped

Индексная карта (non-compilant .cue)

Код:
REM GENRE "Symphonic Metal"
REM DATE 2017
REM DISCID 8D0B050B
REM COMMENT "ExactAudioCopy v1.1"
PERFORMER "Exit Eden"
TITLE "Rhapsodies in Black"
FILE "Exit Eden - Rhapsodies in Black.flac" WAVE
  TRACK 01 AUDIO
    TITLE "Question of Time"
    PERFORMER "Exit Eden"
    INDEX 01 00:00:00
  TRACK 02 AUDIO
    TITLE "Unfaithful"
    PERFORMER "Exit Eden"
    INDEX 00 04:28:11
    INDEX 01 04:28:53
  TRACK 03 AUDIO
    TITLE "Incomplete"
    PERFORMER "Exit Eden"
    INDEX 00 08:15:74
    INDEX 01 08:17:55
  TRACK 04 AUDIO
    TITLE "Impossible"
    PERFORMER "Exit Eden"
    INDEX 00 12:11:33
    INDEX 01 12:13:20
  TRACK 05 AUDIO
    TITLE "Frozen feat. Simone Simons "
    PERFORMER "Exit Eden"
    INDEX 00 16:18:35
    INDEX 01 16:19:67
  TRACK 06 AUDIO
    TITLE "Heaven"
    PERFORMER "Exit Eden"
    INDEX 00 21:53:64
    INDEX 01 21:55:63
  TRACK 07 AUDIO
    TITLE "Firework"
    PERFORMER "Exit Eden"
    INDEX 00 25:38:61
    INDEX 01 25:40:60
  TRACK 08 AUDIO
    TITLE "Skyfall feat. Simone Simons "
    PERFORMER "Exit Eden"
    INDEX 00 29:56:74
    INDEX 01 29:58:59
  TRACK 09 AUDIO
    TITLE "Total Eclipse of the Heart feat. Rick Altzi"
    PERFORMER "Exit Eden"
    INDEX 00 34:33:06
    INDEX 01 34:34:22
  TRACK 10 AUDIO
    TITLE "Paparazzi"
    PERFORMER "Exit Eden"
    INDEX 00 38:55:50
    INDEX 01 38:59:35
  TRACK 11 AUDIO
    TITLE "Fade to Grey"
    PERFORMER "Exit Eden"
    INDEX 00 43:07:22
    INDEX 01 43:09:67

Информация о группе:

Четыре певицы из четырех разных стран с совершенно разными биографиями объединились в новой группе EXIT EDEN.Она обладает всеми свойствами, характерными для нынешнего тысячелетия – космополитическим характером, независимостью, уверенностью в себе и решимостью идти своим путем. Несмотря на все свои различия, Аманда Сомервилль (Amanda Somerville), Клементина Делони (Clémentine Delauney), Марина Ла Торрака (Marina La Torraca) и Анна Брюннер (Anna Brunner) превосходно ладят на личном уровне, а их различные тембры голосов и техники пения, варьирующиеся от оперы до сурового рока, идеально сочетаются друг с другом. Идея, лежащая в основе EXIT EDEN, заключается в том, чтобы доказать, что практически любую классическую песню можно переделать в настоящий металл.
Дебютный альбом EXIT EDEN "Rhapsodies In Black" увидит свет 4 августа на лейбле Napalm во всем мире (за исключением Германии, Швейцарии и Австрии, где его выпустят Starwatch). Это цветастая подборка международных суперхитов – от Рианны до Мадонны, от DEPECHE MODE до Адель и т.д. Но в то же время, это нечто гораздо большее, чем просто альбом каверов.

для ознакомления (кто не в курсе...)

https://www.youtube.com/watch?v=ED8Xezz2bhU
https://www.youtube.com/watch?v=AD6VAZFHWLY
--

_________________
Разница между теорией и практикой в том, что теоретически разницы между теорией и практикой нет, а на практике она есть.
[Профиль] [ЛС]

Офлайн

S.H.E.F.F.

Стаж:
5 лет
Сообщений:
17

Блин... Классно тётки поют. ay
Смотрю

_________________
Если ты споришь с идиотом, то, вероятно, тоже самое делает и он.
[Профиль] [ЛС]
Показать сообщения:    

Текущее время: Сегодня 06:29

Часовой пояс: GMT + 3



Вы не можете начинать темы
Вы не можете отвечать на сообщения
Вы не можете редактировать свои сообщения
Вы не можете удалять свои сообщения
Вы не можете голосовать в опросах
Вы не можете прикреплять файлы к сообщениям
Вы не можете скачивать файлы