Золотые дни идет свободное скачивание без начисления Download
 

Офлайн

sergej644

Стаж:
5 лет 5 месяцев
Сообщений:
853

-Eagles - Hotel California (40th Anniversary Expanded Edition, 2CD)--
Год издания: 2017
Страна: USA
Жанр: Country Rock
Продолжительность: 01:32:06-Лейбл издания: Asylum Records / Elektra Records / Rhino Records
Страна-выпуска диска: EU
Номер по каталогу: LC02982-Формат: FLAC
Битрейт аудио: Lossless
Тип рипа: image +.cue
Наличие сканов в содержимом раздачи: да
-

Трэклист

CD 1 - Original Album | 00:43:28


01. Hotel California (6:31)
02. New Kid In Town (5:05)
03. Life In The Fast Lane (4:46)
04. Wasted Time (4:56)
05. Wasted Time (Reprise) (1:23)
06. Victim Of Love (4:10)
07. Pretty Maids All In A Row (3:59)
08. Try And Love Again (5:11)
09. The Last Resort (7:25)

CD 2 - Live At The LA Forum Oct. 20-22 1976 | 00:48:38


01. Take It Easy (4:48)
02. Take It To The Limit (5:19)
03. New Kid In Town (4:53)
04. James Dean (3:50)
05. Good Day In Hell (5:29)
06. Witchy Woman (4:20)
07. Funk #49 (4:04)
08. One Of These Nights (3:52)
09. Hotel California (6:50)
10. Already Gone (5:15)
-

Лог создания рипа

CD 1

Код:
Exact Audio Copy V1.3 from 2. September 2016
EAC extraction logfile from 2. December 2017, 16:40
Eagles / Hotel California CD1 Original Album
Used drive  : PLEXTOR BD-R  PX-B950SA   Adapter: 1  ID: 1
Read mode               : Secure
Utilize accurate stream : Yes
Defeat audio cache      : Yes
Make use of C2 pointers : No
Read offset correction                      : 6
Overread into Lead-In and Lead-Out          : No
Fill up missing offset samples with silence : Yes
Delete leading and trailing silent blocks   : No
Null samples used in CRC calculations       : Yes
Used interface                              : Native Win32 interface for Win NT & 2000
Used output format : Internal WAV Routines
Sample format      : 44.100 Hz; 16 Bit; Stereo
TOC of the extracted CD
     Track |   Start  |  Length  | Start sector | End sector
    ---------------------------------------------------------
        1  |  0:00.00 |  6:31.26 |         0    |    29350
        2  |  6:31.26 |  5:04.68 |     29351    |    52218
        3  | 11:36.19 |  4:46.15 |     52219    |    73683
        4  | 16:22.34 |  4:56.12 |     73684    |    95895
        5  | 21:18.46 |  1:23.30 |     95896    |   102150
        6  | 22:42.01 |  4:10.05 |    102151    |   120905
        7  | 26:52.06 |  3:59.36 |    120906    |   138866
        8  | 30:51.42 |  5:11.03 |    138867    |   162194
        9  | 36:02.45 |  7:24.70 |    162195    |   195564
Range status and errors
Selected range
     Filename C:\Users\Alex\Desktop\Lossless Galaxy ALLexxess\Eagles\1976 Hotel California (3-Disc Box Set Asylum Records 2017)\CD1\Eagles - Hotel California CD1 Original Album.wav
     Peak level 100.0 %
     Extraction speed 6.5 X
     Range quality 99.9 %
     Test CRC FB562F28
     Copy CRC FB562F28
     Copy OK
No errors occurred
AccurateRip summary
Track  1  not present in database
Track  2  not present in database
Track  3  not present in database
Track  4  not present in database
Track  5  not present in database
Track  6  not present in database
Track  7  not present in database
Track  8  not present in database
Track  9  not present in database
None of the tracks are present in the AccurateRip database
End of status report
---- CUETools DB Plugin V2.1.6
[CTDB TOCID: MgYAzw8tujUjsjMG4YPiWud.YgI-] found
Submit result: MgYAzw8tujUjsjMG4YPiWud.YgI- has been confirmed
Track | CTDB Status
  1   | (29/29) Accurately ripped
  2   | (29/29) Accurately ripped
  3   | (29/29) Accurately ripped
  4   | (29/29) Accurately ripped
  5   | (29/29) Accurately ripped
  6   | (29/29) Accurately ripped
  7   | (29/29) Accurately ripped
  8   | (29/29) Accurately ripped
  9   | (29/29) Accurately ripped

CD 2

Код:
Exact Audio Copy V1.3 from 2. September 2016
EAC extraction logfile from 2. December 2017, 16:13
Eagles / Hotel California CD2 Live At The LA 1976
Used drive  : PLEXTOR BD-R  PX-B950SA   Adapter: 1  ID: 1
Read mode               : Secure
Utilize accurate stream : Yes
Defeat audio cache      : Yes
Make use of C2 pointers : No
Read offset correction                      : 6
Overread into Lead-In and Lead-Out          : No
Fill up missing offset samples with silence : Yes
Delete leading and trailing silent blocks   : No
Null samples used in CRC calculations       : Yes
Used interface                              : Native Win32 interface for Win NT & 2000
Used output format : Internal WAV Routines
Sample format      : 44.100 Hz; 16 Bit; Stereo
TOC of the extracted CD
     Track |   Start  |  Length  | Start sector | End sector
    ---------------------------------------------------------
        1  |  0:00.00 |  4:47.40 |         0    |    21564
        2  |  4:47.40 |  5:18.44 |     21565    |    45458
        3  | 10:06.09 |  4:52.55 |     45459    |    67413
        4  | 14:58.64 |  3:49.59 |     67414    |    84647
        5  | 18:48.48 |  5:28.58 |     84648    |   109305
        6  | 24:17.31 |  4:20.02 |    109306    |   128807
        7  | 28:37.33 |  4:03.53 |    128808    |   147085
        8  | 32:41.11 |  3:52.15 |    147086    |   164500
        9  | 36:33.26 |  6:49.39 |    164501    |   195214
       10  | 43:22.65 |  5:15.20 |    195215    |   218859
Range status and errors
Selected range
     Filename C:\Users\Alex\Desktop\Lossless Galaxy ALLexxess\Eagles\1976 Hotel California (3-Disc Box Set Asylum Records 2017)\CD2\Eagles - Hotel California CD2 Live At The LA 1976.wav
     Peak level 100.0 %
     Extraction speed 3.1 X
     Range quality 100.0 %
     Test CRC 8DDD22D3
     Copy CRC 8DDD22D3
     Copy OK
No errors occurred
AccurateRip summary
Track  1  not present in database
Track  2  not present in database
Track  3  not present in database
Track  4  not present in database
Track  5  not present in database
Track  6  not present in database
Track  7  not present in database
Track  8  not present in database
Track  9  not present in database
Track 10  not present in database
None of the tracks are present in the AccurateRip database
End of status report
---- CUETools DB Plugin V2.1.6
[CTDB TOCID: dJ2my0yg8AknTzQqGcU4aa1bHLI-] found
Submit result: dJ2my0yg8AknTzQqGcU4aa1bHLI- has been confirmed
Track | CTDB Status
  1   | (28/28) Accurately ripped
  2   | (28/28) Accurately ripped
  3   | (28/28) Accurately ripped
  4   | (28/28) Accurately ripped
  5   | (28/28) Accurately ripped
  6   | (28/28) Accurately ripped
  7   | (28/28) Accurately ripped
  8   | (28/28) Accurately ripped
  9   | (28/28) Accurately ripped
10   | (28/28) Accurately ripped

Индексная карта (non-compilant .cue)

CD 1

Код:
REM GENRE Rock
REM DATE 1976
REM DISCID 800A2F09
REM COMMENT "ExactAudioCopy v1.3"
CATALOG 0081227933234
PERFORMER "Eagles"
TITLE "Hotel California CD1 Original Album"
REM COMPOSER "Eagles"
FILE "Range.wav" WAVE
  TRACK 01 AUDIO
    TITLE "Hotel California"
    PERFORMER "Eagles"
    REM COMPOSER "Eagles"
    ISRC USEE11300353
    INDEX 01 00:00:00
  TRACK 02 AUDIO
    TITLE "New Kid In Town"
    PERFORMER "Eagles"
    REM COMPOSER "Eagles"
    ISRC USEE11300354
    INDEX 01 06:31:26
  TRACK 03 AUDIO
    TITLE "Life In The Fast Lane"
    PERFORMER "Eagles"
    REM COMPOSER "Eagles"
    ISRC USEE11300355
    INDEX 01 11:36:19
  TRACK 04 AUDIO
    TITLE "Wasted Time"
    PERFORMER "Eagles"
    REM COMPOSER "Eagles"
    ISRC USEE11300356
    INDEX 01 16:22:34
  TRACK 05 AUDIO
    TITLE "Wasted Time (Reprise)"
    PERFORMER "Eagles"
    REM COMPOSER "Eagles"
    ISRC USEE11300357
    INDEX 01 21:18:46
  TRACK 06 AUDIO
    TITLE "Victim Of Love"
    PERFORMER "Eagles"
    REM COMPOSER "Eagles"
    ISRC USEE11300358
    INDEX 01 22:42:01
  TRACK 07 AUDIO
    TITLE "Pretty Maids All In A Row"
    PERFORMER "Eagles"
    REM COMPOSER "Eagles"
    ISRC USEE11300359
    INDEX 01 26:52:06
  TRACK 08 AUDIO
    TITLE "Try And Love Again"
    PERFORMER "Eagles"
    REM COMPOSER "Eagles"
    ISRC USEE11300360
    INDEX 01 30:51:42
  TRACK 09 AUDIO
    TITLE "The Last Resort"
    PERFORMER "Eagles"
    REM COMPOSER "Eagles"
    ISRC USEE11300361
    INDEX 01 36:02:45

CD 2

Код:
REM GENRE Rock
REM DATE 1976
REM DISCID 860B660A
REM COMMENT "ExactAudioCopy v1.3"
PERFORMER "Eagles"
TITLE "Hotel California CD2 Live At The LA 1976"
REM COMPOSER "Eagles"
FILE "Eagles - Hotel California CD2 Live At The LA 1976.flac" WAVE
  TRACK 01 AUDIO
    TITLE "Take It Easy"
    PERFORMER "Eagles"
    REM COMPOSER "Eagles"
    INDEX 01 00:00:00
  TRACK 02 AUDIO
    TITLE "Take It To The Limit"
    PERFORMER "Eagles"
    REM COMPOSER "Eagles"
    INDEX 01 04:47:40
  TRACK 03 AUDIO
    TITLE "New Kid In Town"
    PERFORMER "Eagles"
    REM COMPOSER "Eagles"
    INDEX 01 10:06:09
  TRACK 04 AUDIO
    TITLE "James Dean"
    PERFORMER "Eagles"
    REM COMPOSER "Eagles"
    INDEX 01 14:58:64
  TRACK 05 AUDIO
    TITLE "Good Day In Hell"
    PERFORMER "Eagles"
    REM COMPOSER "Eagles"
    INDEX 01 18:48:48
  TRACK 06 AUDIO
    TITLE "Witchy Woman"
    PERFORMER "Eagles"
    REM COMPOSER "Eagles"
    INDEX 01 24:17:31
  TRACK 07 AUDIO
    TITLE "Funk #49"
    PERFORMER "Eagles"
    REM COMPOSER "Eagles"
    INDEX 01 28:37:33
  TRACK 08 AUDIO
    TITLE "One Of These Nights"
    PERFORMER "Eagles"
    REM COMPOSER "Eagles"
    INDEX 01 32:41:11
  TRACK 09 AUDIO
    TITLE "Hotel California"
    PERFORMER "Eagles"
    REM COMPOSER "Eagles"
    INDEX 01 36:33:26
  TRACK 10 AUDIO
    TITLE "Already Gone"
    PERFORMER "Eagles"
    REM COMPOSER "Eagles"
    INDEX 01 43:22:65

Информация об альбоме:

Расширенная версия юбилейного издания! Hotel California - студийный альбом группы Eagles, вышедший в 1976 году. Две композиции с альбома — «New Kid in Town» и «Hotel California» — возглавили американский чарт продаж (Billboard Hot 100), причём последняя была также удостоена «Грэмми» в номинации «лучшая запись года». В 2001 году альбом Hotel California стал 15-м в списке величайших альбомов всех времён, составленном телекомпанией VH1.
--

_________________
Разница между теорией и практикой в том, что теоретически разницы между теорией и практикой нет, а на практике она есть.
[Профиль] [ЛС]
Показать сообщения:    

Текущее время: Сегодня 19:16

Часовой пояс: GMT + 3



Вы не можете начинать темы
Вы не можете отвечать на сообщения
Вы не можете редактировать свои сообщения
Вы не можете удалять свои сообщения
Вы не можете голосовать в опросах
Вы не можете прикреплять файлы к сообщениям
Вы не можете скачивать файлы