Золотые дни идет свободное скачивание без начисления Download
 

Офлайн

sergej644

Стаж:
5 лет 1 месяц
Сообщений:
818

-Steelheart - Through Worlds Of Stardust--
Год издания: 2017
Страна: USA
Жанр: Hard Rock
Продолжительность: 00:40:17-Лейбл издания: Frontiers Records
Страна-выпуска диска: Italy
Номер по каталогу: FR CD 814-Формат: FLAC
Битрейт аудио: Lossless
Тип рипа: tracks +.cue
Наличие сканов в содержимом раздачи: да
-

Трэклист


01. Stream Line Savings (3:56)
02. My Dirty Girl (4:20)
03. Come Inside (3:40)
04. My Word (3:57)
05. You Got Me Twisted (3:44)
06. Lips Of Rain (4:16)
07. With Love We Live Again (5:16)
08. Got Me Runnin' (3:46)
09. My Freedom (3:37)
10. I'M So In Love With You (3:44)
-

Лог создания рипа

Код:
Exact Audio Copy V1.1 from 23. June 2015
EAC extraction logfile from 31. October 2017, 19:57
Steelheart / Through Worlds Of Stardust
Used drive  : TSSTcorpCDDVDW SH-224DB   Adapter: 1  ID: 0
Read mode               : Secure
Utilize accurate stream : Yes
Defeat audio cache      : Yes
Make use of C2 pointers : No
Read offset correction                      : 6
Overread into Lead-In and Lead-Out          : No
Fill up missing offset samples with silence : Yes
Delete leading and trailing silent blocks   : No
Null samples used in CRC calculations       : Yes
Used interface                              : Native Win32 interface for Win NT & 2000
Gap handling                                : Appended to previous track
Used output format              : User Defined Encoder
Selected bitrate                : 1024 kBit/s
Quality                         : High
Add ID3 tag                     : No
Command line compressor         : C:\Program Files (x86)\Exact Audio Copy\win64\flac.exe
Additional command line options : -8 -V -T "ARTIST=%artist%" -T "TITLE=%title%" -T "ALBUM=%albumtitle%" -T "DATE=%year%" -T "TRACKNUMBER=%tracknr%" -T "GENRE=%genre%" -T "COMMENT=%comment%" %source% -o %dest%
TOC of the extracted CD
     Track |   Start  |  Length  | Start sector | End sector
    ---------------------------------------------------------
        1  |  0:00.00 |  3:56.00 |         0    |    17699
        2  |  3:56.00 |  4:20.02 |     17700    |    37201
        3  |  8:16.02 |  3:40.16 |     37202    |    53717
        4  | 11:56.18 |  3:57.16 |     53718    |    71508
        5  | 15:53.34 |  3:43.46 |     71509    |    88279
        6  | 19:37.05 |  4:16.24 |     88280    |   107503
        7  | 23:53.29 |  5:15.53 |    107504    |   131181
        8  | 29:09.07 |  3:46.34 |    131182    |   148165
        9  | 32:55.41 |  3:36.74 |    148166    |   164439
       10  | 36:32.40 |  3:44.26 |    164440    |   181265
Track  1
     Filename F:\Sket4er\Steelheart – Through Worlds Of Stardust  2017\01 Stream Line Savings.wav
     Pre-gap length  0:00:02.00
     Peak level 98.8 %
     Extraction speed 1.9 X
     Track quality 100.0 %
     Test CRC 91189DBE
     Copy CRC 91189DBE
     Cannot be verified as accurate (confidence 1)  [68C63EA0], AccurateRip returned [4D285B63]  (AR v2)
     Copy OK
Track  2
     Filename F:\Sket4er\Steelheart – Through Worlds Of Stardust  2017\02 My Dirty Girl.wav
     Peak level 98.8 %
     Extraction speed 2.1 X
     Track quality 100.0 %
     Test CRC 43399EA4
     Copy CRC 43399EA4
     Cannot be verified as accurate (confidence 1)  [26C438EF], AccurateRip returned [EA635E92]  (AR v2)
     Copy OK
Track  3
     Filename F:\Sket4er\Steelheart – Through Worlds Of Stardust  2017\03 Come Inside.wav
     Peak level 98.8 %
     Extraction speed 2.3 X
     Track quality 100.0 %
     Test CRC FAAD1783
     Copy CRC FAAD1783
     Cannot be verified as accurate (confidence 1)  [654D570A], AccurateRip returned [1BDB4DD7]  (AR v2)
     Copy OK
Track  4
     Filename F:\Sket4er\Steelheart – Through Worlds Of Stardust  2017\04 My Word.wav
     Peak level 98.8 %
     Extraction speed 2.4 X
     Track quality 100.0 %
     Test CRC 1CDE314D
     Copy CRC 1CDE314D
     Cannot be verified as accurate (confidence 1)  [45233289], AccurateRip returned [26C2A59A]  (AR v2)
     Copy OK
Track  5
     Filename F:\Sket4er\Steelheart – Through Worlds Of Stardust  2017\05 You Got Me Twisted.wav
     Peak level 98.8 %
     Extraction speed 2.5 X
     Track quality 100.0 %
     Test CRC 73CD11AF
     Copy CRC 73CD11AF
     Cannot be verified as accurate (confidence 1)  [705FADF7], AccurateRip returned [D9D4BB28]  (AR v2)
     Copy OK
Track  6
     Filename F:\Sket4er\Steelheart – Through Worlds Of Stardust  2017\06 Lips Of Rain.wav
     Peak level 98.8 %
     Extraction speed 2.2 X
     Track quality 99.9 %
     Test CRC 06E51CA6
     Copy CRC 06E51CA6
     Cannot be verified as accurate (confidence 1)  [490227D7], AccurateRip returned [CC0F6549]  (AR v2)
     Copy OK
Track  7
     Filename F:\Sket4er\Steelheart – Through Worlds Of Stardust  2017\07 With Love We Live Again.wav
     Peak level 96.5 %
     Extraction speed 2.5 X
     Track quality 99.9 %
     Test CRC 440DEA8D
     Copy CRC 440DEA8D
     Cannot be verified as accurate (confidence 1)  [77AD24FF], AccurateRip returned [ACC5608E]  (AR v2)
     Copy OK
Track  8
     Filename F:\Sket4er\Steelheart – Through Worlds Of Stardust  2017\08 Got Me Runnin'.wav
     Peak level 98.8 %
     Extraction speed 3.0 X
     Track quality 100.0 %
     Test CRC CCF43711
     Copy CRC CCF43711
     Cannot be verified as accurate (confidence 1)  [EDEBA837], AccurateRip returned [208026F2]  (AR v2)
     Copy OK
Track  9
     Filename F:\Sket4er\Steelheart – Through Worlds Of Stardust  2017\09 My Freedom.wav
     Peak level 98.8 %
     Extraction speed 3.0 X
     Track quality 100.0 %
     Test CRC C5DF3E14
     Copy CRC C5DF3E14
     Cannot be verified as accurate (confidence 1)  [E853FF00], AccurateRip returned [A5E2ABBE]  (AR v2)
     Copy OK
Track 10
     Filename F:\Sket4er\Steelheart – Through Worlds Of Stardust  2017\10 I'M So In Love With You.wav
     Peak level 76.9 %
     Extraction speed 3.2 X
     Track quality 100.0 %
     Test CRC 88E219BF
     Copy CRC 88E219BF
     Cannot be verified as accurate (confidence 1)  [C018F67E], AccurateRip returned [AFAD4404]  (AR v2)
     Copy OK
No tracks could be verified as accurate
You may have a different pressing from the one(s) in the database
No errors occurred
End of status report
---- CUETools DB Plugin V2.1.6
[CTDB TOCID: FpOpn2ZCTEd.mtC16pFNIzRL9N8-] found
Submit result: FpOpn2ZCTEd.mtC16pFNIzRL9N8- has been confirmed
Track | CTDB Status
  1   | (6/6) Accurately ripped
  2   | (6/6) Accurately ripped
  3   | (6/6) Accurately ripped
  4   | (6/6) Accurately ripped
  5   | (6/6) Accurately ripped
  6   | (6/6) Accurately ripped
  7   | (6/6) Accurately ripped
  8   | (6/6) Accurately ripped
  9   | (6/6) Accurately ripped
10   | (6/6) Accurately ripped

Индексная карта (non-compilant .cue)

Код:
REM GENRE "Hard Rock"
REM DATE 2017
REM DISCID 9C09700A
REM COMMENT "ExactAudioCopy v1.1"
PERFORMER " Steelheart"
TITLE "Through Worlds Of Stardust "
FILE "01 Stream Line Savings.wav" WAVE
  TRACK 01 AUDIO
    TITLE "Stream Line Savings"
    PERFORMER " Steelheart"
    INDEX 01 00:00:00
FILE "02 My Dirty Girl.wav" WAVE
  TRACK 02 AUDIO
    TITLE "My Dirty Girl"
    PERFORMER " Steelheart"
    INDEX 01 00:00:00
FILE "03 Come Inside.wav" WAVE
  TRACK 03 AUDIO
    TITLE "Come Inside"
    PERFORMER " Steelheart"
    INDEX 01 00:00:00
FILE "04 My Word.wav" WAVE
  TRACK 04 AUDIO
    TITLE "My Word"
    PERFORMER " Steelheart"
    INDEX 01 00:00:00
FILE "05 You Got Me Twisted.wav" WAVE
  TRACK 05 AUDIO
    TITLE "You Got Me Twisted"
    PERFORMER " Steelheart"
    INDEX 01 00:00:00
FILE "06 Lips Of Rain.wav" WAVE
  TRACK 06 AUDIO
    TITLE "Lips Of Rain"
    PERFORMER " Steelheart"
    INDEX 01 00:00:00
FILE "07 With Love We Live Again.wav" WAVE
  TRACK 07 AUDIO
    TITLE "With Love We Live Again"
    PERFORMER " Steelheart"
    INDEX 01 00:00:00
FILE "08 Got Me Runnin'.wav" WAVE
  TRACK 08 AUDIO
    TITLE "Got Me Runnin'"
    PERFORMER " Steelheart"
    INDEX 01 00:00:00
FILE "09 My Freedom.wav" WAVE
  TRACK 09 AUDIO
    TITLE "My Freedom"
    PERFORMER " Steelheart"
    INDEX 01 00:00:00
FILE "10 I'M So In Love With You.wav" WAVE
  TRACK 10 AUDIO
    TITLE "I'M So In Love With You"
    PERFORMER " Steelheart"
    INDEX 01 00:00:00

Состав:

Miljenko Matijevic - Lead Vocals, Acoustic Guitar, Guitars, Ebow Guitars
Uros Raskovski - Guitars
Kenny Kanowski - Guitars on “My Dirty Girl”
James “Rev” Jones, Sigve Sjursen, Jesse Stern - Bass
Daniel Fouche, Ed Roth - Piano
Mike Humbert, Randy Cooke - Drums
--

_________________
Разница между теорией и практикой в том, что теоретически разницы между теорией и практикой нет, а на практике она есть.
[Профиль] [ЛС]
Показать сообщения:    

Текущее время: Сегодня 23:06

Часовой пояс: GMT + 3



Вы не можете начинать темы
Вы не можете отвечать на сообщения
Вы не можете редактировать свои сообщения
Вы не можете удалять свои сообщения
Вы не можете голосовать в опросах
Вы не можете прикреплять файлы к сообщениям
Вы не можете скачивать файлы