Золотые дни идет свободное скачивание без начисления Download
 

Офлайн

sergej644

Стаж:
5 лет 11 месяцев
Сообщений:
892

-Jeff Lynne's ELO - Wembley or Bust (2CD)--
Год издания: 2017
Страна: UK
Жанр: Progressive & Art Rock
Продолжительность: 01:38:38-Лейбл издания: © Big Tribly Records, under exclusive licence to Columbia Records, a Division of Sony Music Entertainment
Страна-выпуска диска: EU
Номер по каталогу: 88985492222-Формат: FLAC
Битрейт аудио: Lossless
Тип рипа: image +.cue
Наличие сканов в содержимом раздачи: да (600 dpi)
-

Трэклист

CD 1 | 00:48:35


01. Standin’ in the Rain (4:11)
02. Evil Woman (4:36)
03. All Over the World (4:01)
04. Showdown (4:15)
05. Livin’ Thing (4:10)
06. Do Ya (4:13)
07. When I Was a Boy (3:29)
08. Handle with Care (3:46)
09. Last Train to London (4:24)
10. Xanadu (3:23)
11. Rockaria! (3:21)
12. Can’t Get It Out of My Head (4:46)

CD 2 | 00:50:03


01. 10538 Overture (4:49)
02. Twilight (4:45)
03. Ma.Ma.Ma Belle (4:07)
04. Shine a Little Love (3:54)
05. Wild West Hero (4:10)
06. Sweet Talkin’ Woman (3:44)
07. Telephone Line (4:56)
08. Turn to Stone (4:01)
09. Don’t Bring Me Down (4:15)
10. Mr. Blue Sky (5:11)
11. Roll Over Beethoven (6:11)
-

Лог создания рипа

CD 1

Код:
Exact Audio Copy V1.3 from 2. September 2016
EAC extraction logfile from 17. November 2017, 16:37
Electric Light Orchestra / Wembley or Bust
Used drive  : PLEXTOR BD-R  PX-LB950SA   Adapter: 1  ID: 1
Read mode               : Secure
Utilize accurate stream : Yes
Defeat audio cache      : Yes
Make use of C2 pointers : No
Read offset correction                      : 6
Overread into Lead-In and Lead-Out          : No
Fill up missing offset samples with silence : Yes
Delete leading and trailing silent blocks   : No
Null samples used in CRC calculations       : Yes
Used interface                              : Native Win32 interface for Win NT & 2000
Used output format              : User Defined Encoder
Selected bitrate                : 128 kBit/s
Quality                         : High
Add ID3 tag                     : No
Command line compressor         : C:\Program Files (x86)\Exact Audio Copy\Flac\flac.exe
Additional command line options : -V -8 -T "Date=%year%" -T "Genre=%genre%" %source%
TOC of the extracted CD
     Track |   Start  |  Length  | Start sector | End sector
    ---------------------------------------------------------
        1  |  0:00.00 |  4:11.37 |         0    |    18861
        2  |  4:11.37 |  4:36.13 |     18862    |    39574
        3  |  8:47.50 |  4:00.45 |     39575    |    57619
        4  | 12:48.20 |  4:15.22 |     57620    |    76766
        5  | 17:03.42 |  4:09.43 |     76767    |    95484
        6  | 21:13.10 |  4:12.60 |     95485    |   114444
        7  | 25:25.70 |  3:29.00 |    114445    |   130119
        8  | 28:54.70 |  3:45.45 |    130120    |   147039
        9  | 32:40.40 |  4:24.22 |    147040    |   166861
       10  | 37:04.62 |  3:23.28 |    166862    |   182114
       11  | 40:28.15 |  3:21.00 |    182115    |   197189
       12  | 43:49.15 |  4:45.64 |    197190    |   218628
Range status and errors
Selected range
     Filename C:\Jeff Lynne's ELO - Wembley or Bust - 2017\CD1\Electric Light Orchestra - Wembley or Bust.wav
     Peak level 100.0 %
     Extraction speed 3.2 X
     Range quality 100.0 %
     Test CRC F691D384
     Copy CRC F691D384
     Copy OK
No errors occurred
AccurateRip summary
Track  1  not present in database
Track  2  not present in database
Track  3  not present in database
Track  4  not present in database
Track  5  not present in database
Track  6  not present in database
Track  7  not present in database
Track  8  not present in database
Track  9  not present in database
Track 10  not present in database
Track 11  not present in database
Track 12  not present in database
None of the tracks are present in the AccurateRip database
End of status report
---- CUETools DB Plugin V2.1.6
[CTDB TOCID: 4Fl70zFYGuo8W78zNzHOJhchQK4-] found
Submit result: 4Fl70zFYGuo8W78zNzHOJhchQK4- has been confirmed
Track | CTDB Status
  1   | (3/3) Accurately ripped
  2   | (3/3) Accurately ripped
  3   | (3/3) Accurately ripped
  4   | (3/3) Accurately ripped
  5   | (3/3) Accurately ripped
  6   | (3/3) Accurately ripped
  7   | (3/3) Accurately ripped
  8   | (3/3) Accurately ripped
  9   | (3/3) Accurately ripped
10   | (3/3) Accurately ripped
11   | (3/3) Accurately ripped
12   | (3/3) Accurately ripped

CD 2

Код:
Exact Audio Copy V1.3 from 2. September 2016
EAC extraction logfile from 17. November 2017, 17:13
Electric Light Orchestra / Wembley or Bust
Used drive  : PLEXTOR BD-R  PX-LB950SA   Adapter: 1  ID: 1
Read mode               : Secure
Utilize accurate stream : Yes
Defeat audio cache      : Yes
Make use of C2 pointers : No
Read offset correction                      : 6
Overread into Lead-In and Lead-Out          : No
Fill up missing offset samples with silence : Yes
Delete leading and trailing silent blocks   : No
Null samples used in CRC calculations       : Yes
Used interface                              : Native Win32 interface for Win NT & 2000
Used output format              : User Defined Encoder
Selected bitrate                : 128 kBit/s
Quality                         : High
Add ID3 tag                     : No
Command line compressor         : C:\Program Files (x86)\Exact Audio Copy\Flac\flac.exe
Additional command line options : -V -8 -T "Date=%year%" -T "Genre=%genre%" %source%
TOC of the extracted CD
     Track |   Start  |  Length  | Start sector | End sector
    ---------------------------------------------------------
        1  |  0:00.00 |  4:48.40 |         0    |    21639
        2  |  4:48.40 |  4:45.10 |     21640    |    43024
        3  |  9:33.50 |  4:07.35 |     43025    |    61584
        4  | 13:41.10 |  3:54.14 |     61585    |    79148
        5  | 17:35.24 |  4:09.63 |     79149    |    97886
        6  | 21:45.12 |  3:44.32 |     97887    |   114718
        7  | 25:29.44 |  4:55.65 |    114719    |   136908
        8  | 30:25.34 |  4:00.53 |    136909    |   154961
        9  | 34:26.12 |  4:14.70 |    154962    |   174081
       10  | 38:41.07 |  5:11.09 |    174082    |   197415
       11  | 43:52.16 |  6:10.39 |    197416    |   225204
Range status and errors
Selected range
     Filename C:\Jeff Lynne's ELO - Wembley or Bust - 2017\CD2\Electric Light Orchestra - Wembley or Bust.wav
     Peak level 100.0 %
     Extraction speed 3.2 X
     Range quality 100.0 %
     Test CRC 93DA952F
     Copy CRC 93DA952F
     Copy OK
No errors occurred
AccurateRip summary
Track  1  not present in database
Track  2  not present in database
Track  3  not present in database
Track  4  not present in database
Track  5  not present in database
Track  6  not present in database
Track  7  not present in database
Track  8  not present in database
Track  9  not present in database
Track 10  not present in database
Track 11  not present in database
None of the tracks are present in the AccurateRip database
End of status report
---- CUETools DB Plugin V2.1.6
[CTDB TOCID: VZhIIx16GnXaaLUvtQSnL.j.AFw-] found
Submit result: VZhIIx16GnXaaLUvtQSnL.j.AFw- has been confirmed
Track | CTDB Status
  1   | (3/3) Accurately ripped
  2   | (3/3) Accurately ripped
  3   | (3/3) Accurately ripped
  4   | (3/3) Accurately ripped
  5   | (3/3) Accurately ripped
  6   | (3/3) Accurately ripped
  7   | (3/3) Accurately ripped
  8   | (3/3) Accurately ripped
  9   | (3/3) Accurately ripped
10   | (3/3) Accurately ripped
11   | (3/3) Accurately ripped

Индексная карта (non-compilant .cue)

CD 1

Код:
REM DATE 2017
REM DISCID 940B630C
REM COMMENT "ExactAudioCopy v1.3"
PERFORMER "Electric Light Orchestra"
TITLE "Wembley or Bust"
REM COMPOSER ""
FILE "Electric Light Orchestra - Wembley or Bust.flac" WAVE
  TRACK 01 AUDIO
    TITLE "Standin’ in the Rain"
    PERFORMER "Electric Light Orchestra"
    REM COMPOSER ""
    ISRC USSM11708564
    INDEX 01 00:00:00
  TRACK 02 AUDIO
    TITLE "Evil Woman"
    PERFORMER "Electric Light Orchestra"
    REM COMPOSER ""
    ISRC USSM11708565
    INDEX 00 04:10:44
    INDEX 01 04:11:37
  TRACK 03 AUDIO
    TITLE "All Over the World"
    PERFORMER "Electric Light Orchestra"
    REM COMPOSER ""
    ISRC USSM11708566
    INDEX 00 08:46:37
    INDEX 01 08:47:50
  TRACK 04 AUDIO
    TITLE "Showdown"
    PERFORMER "Electric Light Orchestra"
    REM COMPOSER ""
    ISRC USSM11708567
    INDEX 00 12:47:03
    INDEX 01 12:48:20
  TRACK 05 AUDIO
    TITLE "Livin’ Thing"
    PERFORMER "Electric Light Orchestra"
    REM COMPOSER ""
    ISRC USSM11708568
    INDEX 00 17:02:31
    INDEX 01 17:03:42
  TRACK 06 AUDIO
    TITLE "Do Ya"
    PERFORMER "Electric Light Orchestra"
    REM COMPOSER ""
    ISRC USSM11708569
    INDEX 00 21:12:29
    INDEX 01 21:13:10
  TRACK 07 AUDIO
    TITLE "When I Was a Boy"
    PERFORMER "Electric Light Orchestra"
    REM COMPOSER ""
    ISRC USSM11708570
    INDEX 00 25:24:34
    INDEX 01 25:25:70
  TRACK 08 AUDIO
    TITLE "Handle with Care"
    PERFORMER "Electric Light Orchestra"
    REM COMPOSER ""
    ISRC USSM11708571
    INDEX 00 28:53:54
    INDEX 01 28:54:70
  TRACK 09 AUDIO
    TITLE "Last Train to London"
    PERFORMER "Electric Light Orchestra"
    REM COMPOSER ""
    ISRC USSM11708572
    INDEX 00 32:39:33
    INDEX 01 32:40:40
  TRACK 10 AUDIO
    TITLE "Xanadu"
    PERFORMER "Electric Light Orchestra"
    REM COMPOSER ""
    ISRC USSM11708573
    INDEX 00 37:03:70
    INDEX 01 37:04:62
  TRACK 11 AUDIO
    TITLE "Rockaria!"
    PERFORMER "Electric Light Orchestra"
    REM COMPOSER ""
    ISRC USSM11708574
    INDEX 00 40:27:13
    INDEX 01 40:28:15
  TRACK 12 AUDIO
    TITLE "Can’t Get It Out of My Head"
    PERFORMER "Electric Light Orchestra"
    REM COMPOSER ""
    ISRC USSM11708575
    INDEX 00 43:48:20
    INDEX 01 43:49:15

CD 2

Код:
REM DATE 2017
REM DISCID 880BBA0B
REM COMMENT "ExactAudioCopy v1.3"
PERFORMER "Electric Light Orchestra"
TITLE "Wembley or Bust"
REM COMPOSER ""
FILE "Electric Light Orchestra - Wembley or Bust.flac" WAVE
  TRACK 01 AUDIO
    TITLE "10538 Overture"
    PERFORMER "Electric Light Orchestra"
    REM COMPOSER ""
    ISRC USSM11708576
    INDEX 01 00:00:00
  TRACK 02 AUDIO
    TITLE "Twilight"
    PERFORMER "Electric Light Orchestra"
    REM COMPOSER ""
    ISRC USSM11708577
    INDEX 00 04:47:13
    INDEX 01 04:48:40
  TRACK 03 AUDIO
    TITLE "Ma.Ma.Ma Belle"
    PERFORMER "Electric Light Orchestra"
    REM COMPOSER ""
    ISRC USSM11708578
    INDEX 00 09:32:51
    INDEX 01 09:33:50
  TRACK 04 AUDIO
    TITLE "Shine a Little Love"
    PERFORMER "Electric Light Orchestra"
    REM COMPOSER ""
    ISRC USSM11708579
    INDEX 00 13:39:56
    INDEX 01 13:41:10
  TRACK 05 AUDIO
    TITLE "Wild West Hero"
    PERFORMER "Electric Light Orchestra"
    REM COMPOSER ""
    ISRC USSM11708580
    INDEX 00 17:34:12
    INDEX 01 17:35:24
  TRACK 06 AUDIO
    TITLE "Sweet Talkin’ Woman"
    PERFORMER "Electric Light Orchestra"
    REM COMPOSER ""
    ISRC USSM11708581
    INDEX 00 21:43:61
    INDEX 01 21:45:12
  TRACK 07 AUDIO
    TITLE "Telephone Line"
    PERFORMER "Electric Light Orchestra"
    REM COMPOSER ""
    ISRC USSM11708582
    INDEX 00 25:28:36
    INDEX 01 25:29:44
  TRACK 08 AUDIO
    TITLE "Turn to Stone"
    PERFORMER "Electric Light Orchestra"
    REM COMPOSER ""
    ISRC USSM11708583
    INDEX 00 30:24:06
    INDEX 01 30:25:34
  TRACK 09 AUDIO
    TITLE "Don’t Bring Me Down"
    PERFORMER "Electric Light Orchestra"
    REM COMPOSER ""
    ISRC USSM11708584
    INDEX 00 34:24:71
    INDEX 01 34:26:12
  TRACK 10 AUDIO
    TITLE "Mr. Blue Sky"
    PERFORMER "Electric Light Orchestra"
    REM COMPOSER ""
    ISRC USSM11708585
    INDEX 00 38:40:02
    INDEX 01 38:41:07
  TRACK 11 AUDIO
    TITLE "Roll Over Beethoven"
    PERFORMER "Electric Light Orchestra"
    REM COMPOSER ""
    ISRC USSM11708586
    INDEX 01 43:52:16
--

_________________
Разница между теорией и практикой в том, что теоретически разницы между теорией и практикой нет, а на практике она есть.
[Профиль] [ЛС]
Показать сообщения:    

Текущее время: Сегодня 12:27

Часовой пояс: GMT + 3



Вы не можете начинать темы
Вы не можете отвечать на сообщения
Вы не можете редактировать свои сообщения
Вы не можете удалять свои сообщения
Вы не можете голосовать в опросах
Вы не можете прикреплять файлы к сообщениям
Вы не можете скачивать файлы