(Hard& Heavy) Black Sabbath - The End Live In Birmingham (3CD Limited Super Deluxe Edition) - 2017 [FLAC, tracks +.cue, lossless] :: Bit-Torrent Трекер Emtrek.org
 
Золотые дни идет свободное скачивание без начисления Download
 

Офлайн

sergej644

Стаж:
5 лет 7 месяцев
Сообщений:
868

-Black Sabbath - The End Live In Birmingham (3CD Limited Super Deluxe Edition)--
Год издания: 2017
Страна: England
Жанр: Hard & Heavy
Продолжительность: 02:10:22-Лейбл издания: Eagle
Страна-выпуска диска: EU
Номер по каталогу: EREDV1292-Формат: FLAC
Битрейт аудио: Lossless
Тип рипа: tracks +.cue
Наличие сканов в содержимом раздачи: да
-

Трэклист

CD 1 | 01:01:30


01. Black Sabbath (7:28)
02. Fairies Wear Boots (6:28)
03. Under The Sun (7:04)
04. After Forever (6:27)
05. Into The Void (7:07)
06. Snowblind (6:40)
07. Band Introductions (1:32)
08. War Pigs (8:32)
09. Behind The Wall Of Sleep (3:33)
10. Bassically / N.I.B. (6:38)

CD 2 | 00:46:33


01. Hand Of Doom (7:07)
02. Medley (3:28)
03. Rat Salad / Drum Solo (8:21)
04. Iron Man (7:53)
05. Dirty Women (8:23)
06. Children Of The Grave (6:33)
07. Paranoid (4:48)

CD 3 | 00:22:18


01. The Wizard (4:05)
02. Wicked World (4:44)
03. Sweet Leaf (5:17)
04. Tomorrow's Dream (3:11)
05. Charges (5:01)
-

Лог создания рипа

CD 1

Код:
Exact Audio Copy V1.0 beta 3 from 29. August 2011
EAC extraction logfile from 30. November 2017, 13:27
Black Sabbath / The End - CD1
Used drive  : HL-DT-STDVDRAM GH24NSB0   Adapter: 0  ID: 0
Read mode               : Secure
Utilize accurate stream : Yes
Defeat audio cache      : Yes
Make use of C2 pointers : No
Read offset correction                      : 6
Overread into Lead-In and Lead-Out          : No
Fill up missing offset samples with silence : Yes
Delete leading and trailing silent blocks   : No
Null samples used in CRC calculations       : Yes
Used interface                              : Native Win32 interface for Win NT & 2000
Gap handling                                : Appended to previous track
Used output format              : User Defined Encoder
Selected bitrate                : 896 kBit/s
Quality                         : High
Add ID3 tag                     : No
Command line compressor         : C:\Users\Alex\Desktop\EAC_1.0_beta_3_Portable_Multilingual\App\EAC\FLAC\flac.exe
Additional command line options : -6 -V -T "ARTIST=%artist%" -T "TITLE=%title%" -T "ALBUM=%albumtitle%" -T "DATE=%year%" -T "TRACKNUMBER=%tracknr%" -T "GENRE=%genre%" -T "COMMENT=%comment%" %hascover%--picture="%coverfile%"%hascover% %source% -o %dest%
TOC of the extracted CD
     Track |   Start  |  Length  | Start sector | End sector
    ---------------------------------------------------------
        1  |  0:00.00 |  7:27.70 |         0    |    33594
        2  |  7:27.70 |  6:28.06 |     33595    |    62700
        3  | 13:56.01 |  7:04.33 |     62701    |    94533
        4  | 21:00.34 |  6:26.56 |     94534    |   123539
        5  | 27:27.15 |  7:07.32 |    123540    |   155596
        6  | 34:34.47 |  6:39.53 |    155597    |   185574
        7  | 41:14.25 |  1:32.23 |    185575    |   192497
        8  | 42:46.48 |  8:32.09 |    192498    |   230906
        9  | 51:18.57 |  3:32.73 |    230907    |   246879
       10  | 54:51.55 |  6:38.24 |    246880    |   276753
Track  1
     Filename C:\Users\Alex\Desktop\Рипы\Black Sabbath 2017 The End Live In Birmingham\CD1\01 - Black Sabbath.wav
     Pre-gap length  0:00:02.00
     Peak level 98.8 %
     Extraction speed 1.1 X
     Track quality 100.0 %
     Test CRC 02F06391
     Copy CRC 02F06391
     Track not present in AccurateRip database
     Copy OK
Track  2
     Filename C:\Users\Alex\Desktop\Рипы\Black Sabbath 2017 The End Live In Birmingham\CD1\02 - Fairies Wear Boots.wav
     Peak level 98.8 %
     Extraction speed 1.2 X
     Track quality 99.9 %
     Test CRC E1086D6B
     Copy CRC E1086D6B
     Track not present in AccurateRip database
     Copy OK
Track  3
     Filename C:\Users\Alex\Desktop\Рипы\Black Sabbath 2017 The End Live In Birmingham\CD1\03 - Under The Sun.wav
     Peak level 98.8 %
     Extraction speed 1.5 X
     Track quality 100.0 %
     Test CRC 4FFE8130
     Copy CRC 4FFE8130
     Track not present in AccurateRip database
     Copy OK
Track  4
     Filename C:\Users\Alex\Desktop\Рипы\Black Sabbath 2017 The End Live In Birmingham\CD1\04 - After Forever.wav
     Peak level 98.8 %
     Extraction speed 1.5 X
     Track quality 99.9 %
     Test CRC 98F6E4CA
     Copy CRC 98F6E4CA
     Track not present in AccurateRip database
     Copy OK
Track  5
     Filename C:\Users\Alex\Desktop\Рипы\Black Sabbath 2017 The End Live In Birmingham\CD1\05 - Into The Void.wav
     Peak level 98.8 %
     Extraction speed 1.8 X
     Track quality 100.0 %
     Test CRC 27DFBEBB
     Copy CRC 27DFBEBB
     Track not present in AccurateRip database
     Copy OK
Track  6
     Filename C:\Users\Alex\Desktop\Рипы\Black Sabbath 2017 The End Live In Birmingham\CD1\06 - Snowblind.wav
     Peak level 98.8 %
     Extraction speed 1.8 X
     Track quality 99.9 %
     Test CRC B17A7533
     Copy CRC B17A7533
     Track not present in AccurateRip database
     Copy OK
Track  7
     Filename C:\Users\Alex\Desktop\Рипы\Black Sabbath 2017 The End Live In Birmingham\CD1\07 - Band Introductions.wav
     Peak level 96.0 %
     Extraction speed 1.2 X
     Track quality 99.8 %
     Test CRC E8F37A79
     Copy CRC E8F37A79
     Track not present in AccurateRip database
     Copy OK
Track  8
     Filename C:\Users\Alex\Desktop\Рипы\Black Sabbath 2017 The End Live In Birmingham\CD1\08 - War Pigs.wav
     Peak level 98.8 %
     Extraction speed 2.1 X
     Track quality 100.0 %
     Test CRC 39B6B046
     Copy CRC 39B6B046
     Track not present in AccurateRip database
     Copy OK
Track  9
     Filename C:\Users\Alex\Desktop\Рипы\Black Sabbath 2017 The End Live In Birmingham\CD1\09 - Behind The Wall Of Sleep.wav
     Peak level 98.8 %
     Extraction speed 2.0 X
     Track quality 100.0 %
     Test CRC 6BBAC8F2
     Copy CRC 6BBAC8F2
     Track not present in AccurateRip database
     Copy OK
Track 10
     Filename C:\Users\Alex\Desktop\Рипы\Black Sabbath 2017 The End Live In Birmingham\CD1\10 - Bassically , N.I.B..wav
     Peak level 98.8 %
     Extraction speed 2.3 X
     Track quality 100.0 %
     Test CRC 4B004348
     Copy CRC 4B004348
     Track not present in AccurateRip database
     Copy OK
None of the tracks are present in the AccurateRip database
No errors occurred
End of status report

CD 2

Код:
Exact Audio Copy V1.0 beta 3 from 29. August 2011
EAC extraction logfile from 30. November 2017, 14:37
Black Sabbath / The End - CD2
Used drive  : HL-DT-STDVDRAM GH24NSB0   Adapter: 0  ID: 0
Read mode               : Secure
Utilize accurate stream : Yes
Defeat audio cache      : Yes
Make use of C2 pointers : No
Read offset correction                      : 6
Overread into Lead-In and Lead-Out          : No
Fill up missing offset samples with silence : Yes
Delete leading and trailing silent blocks   : No
Null samples used in CRC calculations       : Yes
Used interface                              : Native Win32 interface for Win NT & 2000
Gap handling                                : Appended to previous track
Used output format              : User Defined Encoder
Selected bitrate                : 896 kBit/s
Quality                         : High
Add ID3 tag                     : No
Command line compressor         : C:\Users\Alex\Desktop\EAC_1.0_beta_3_Portable_Multilingual\App\EAC\FLAC\flac.exe
Additional command line options : -6 -V -T "ARTIST=%artist%" -T "TITLE=%title%" -T "ALBUM=%albumtitle%" -T "DATE=%year%" -T "TRACKNUMBER=%tracknr%" -T "GENRE=%genre%" -T "COMMENT=%comment%" %hascover%--picture="%coverfile%"%hascover% %source% -o %dest%
TOC of the extracted CD
     Track |   Start  |  Length  | Start sector | End sector
    ---------------------------------------------------------
        1  |  0:00.00 |  7:06.64 |         0    |    32013
        2  |  7:06.64 |  3:28.05 |     32014    |    47618
        3  | 10:34.69 |  8:20.59 |     47619    |    85177
        4  | 18:55.53 |  7:53.18 |     85178    |   120670
        5  | 26:48.71 |  8:22.40 |    120671    |   158360
        6  | 35:11.36 |  6:33.23 |    158361    |   187858
        7  | 41:44.59 |  4:48.27 |    187859    |   209485
Track  1
     Filename C:\Users\Alex\Desktop\Рипы\Black Sabbath 2017 The End Live In Birmingham\CD2\01 - Hand Of Doom.wav
     Pre-gap length  0:00:02.00
     Peak level 98.8 %
     Extraction speed 1.1 X
     Track quality 100.0 %
     Test CRC EDB0414D
     Copy CRC EDB0414D
     Track not present in AccurateRip database
     Copy OK
Track  2
     Filename C:\Users\Alex\Desktop\Рипы\Black Sabbath 2017 The End Live In Birmingham\CD2\02 - Medley.wav
     Peak level 98.8 %
     Extraction speed 1.2 X
     Track quality 100.0 %
     Test CRC 8CF2FCD0
     Copy CRC 8CF2FCD0
     Track not present in AccurateRip database
     Copy OK
Track  3
     Filename C:\Users\Alex\Desktop\Рипы\Black Sabbath 2017 The End Live In Birmingham\CD2\03 - Rat Salad , Drum Solo.wav
     Peak level 98.8 %
     Extraction speed 1.5 X
     Track quality 100.0 %
     Test CRC D8EFFCD7
     Copy CRC D8EFFCD7
     Track not present in AccurateRip database
     Copy OK
Track  4
     Filename C:\Users\Alex\Desktop\Рипы\Black Sabbath 2017 The End Live In Birmingham\CD2\04 - Iron Man.wav
     Peak level 98.8 %
     Extraction speed 1.7 X
     Track quality 100.0 %
     Test CRC 918072CB
     Copy CRC 918072CB
     Track not present in AccurateRip database
     Copy OK
Track  5
     Filename C:\Users\Alex\Desktop\Рипы\Black Sabbath 2017 The End Live In Birmingham\CD2\05 - Dirty Women.wav
     Peak level 98.8 %
     Extraction speed 1.8 X
     Track quality 100.0 %
     Test CRC A0E5E3D7
     Copy CRC A0E5E3D7
     Track not present in AccurateRip database
     Copy OK
Track  6
     Filename C:\Users\Alex\Desktop\Рипы\Black Sabbath 2017 The End Live In Birmingham\CD2\06 - Children Of The Grave.wav
     Peak level 98.8 %
     Extraction speed 1.9 X
     Track quality 100.0 %
     Test CRC 78864E3D
     Copy CRC 78864E3D
     Track not present in AccurateRip database
     Copy OK
Track  7
     Filename C:\Users\Alex\Desktop\Рипы\Black Sabbath 2017 The End Live In Birmingham\CD2\07 - Paranoid.wav
     Peak level 98.8 %
     Extraction speed 2.0 X
     Track quality 100.0 %
     Test CRC FC2A1EAC
     Copy CRC FC2A1EAC
     Track not present in AccurateRip database
     Copy OK
None of the tracks are present in the AccurateRip database
No errors occurred
End of status report

CD 3

Код:
Exact Audio Copy V1.0 beta 3 from 29. August 2011
EAC extraction logfile from 30. November 2017, 15:16
Black Sabbath / The End - Angelic Studios
Used drive  : HL-DT-STDVDRAM GH24NSB0   Adapter: 0  ID: 0
Read mode               : Secure
Utilize accurate stream : Yes
Defeat audio cache      : Yes
Make use of C2 pointers : No
Read offset correction                      : 6
Overread into Lead-In and Lead-Out          : No
Fill up missing offset samples with silence : Yes
Delete leading and trailing silent blocks   : No
Null samples used in CRC calculations       : Yes
Used interface                              : Native Win32 interface for Win NT & 2000
Gap handling                                : Appended to previous track
Used output format              : User Defined Encoder
Selected bitrate                : 896 kBit/s
Quality                         : High
Add ID3 tag                     : No
Command line compressor         : C:\Users\Alex\Desktop\EAC_1.0_beta_3_Portable_Multilingual\App\EAC\FLAC\flac.exe
Additional command line options : -6 -V -T "ARTIST=%artist%" -T "TITLE=%title%" -T "ALBUM=%albumtitle%" -T "DATE=%year%" -T "TRACKNUMBER=%tracknr%" -T "GENRE=%genre%" -T "COMMENT=%comment%" %hascover%--picture="%coverfile%"%hascover% %source% -o %dest%
TOC of the extracted CD
     Track |   Start  |  Length  | Start sector | End sector
    ---------------------------------------------------------
        1  |  0:00.00 |  4:05.19 |         0    |    18393
        2  |  4:05.19 |  4:43.71 |     18394    |    39689
        3  |  8:49.15 |  5:17.30 |     39690    |    63494
        4  | 14:06.45 |  3:10.65 |     63495    |    77809
        5  | 17:17.35 |  5:00.71 |     77810    |   100380
Track  1
     Filename C:\Users\Alex\Desktop\Рипы\Black Sabbath 2017 The End Live In Birmingham\CD3\01 - The Wizard.wav
     Pre-gap length  0:00:02.00
     Peak level 98.8 %
     Extraction speed 1.0 X
     Track quality 100.0 %
     Test CRC 08849B72
     Copy CRC 08849B72
     Track not present in AccurateRip database
     Copy OK
Track  2
     Filename C:\Users\Alex\Desktop\Рипы\Black Sabbath 2017 The End Live In Birmingham\CD3\02 - Wicked World.wav
     Peak level 98.8 %
     Extraction speed 1.2 X
     Track quality 100.0 %
     Test CRC 62152397
     Copy CRC 62152397
     Track not present in AccurateRip database
     Copy OK
Track  3
     Filename C:\Users\Alex\Desktop\Рипы\Black Sabbath 2017 The End Live In Birmingham\CD3\03 - Sweet Leaf.wav
     Peak level 98.8 %
     Extraction speed 1.2 X
     Track quality 99.9 %
     Test CRC AD9E5404
     Copy CRC AD9E5404
     Track not present in AccurateRip database
     Copy OK
Track  4
     Filename C:\Users\Alex\Desktop\Рипы\Black Sabbath 2017 The End Live In Birmingham\CD3\04 - Tomorrow's Dream.wav
     Peak level 98.8 %
     Extraction speed 1.1 X
     Track quality 99.9 %
     Test CRC 7CA32B0F
     Copy CRC 7CA32B0F
     Track not present in AccurateRip database
     Copy OK
Track  5
     Filename C:\Users\Alex\Desktop\Рипы\Black Sabbath 2017 The End Live In Birmingham\CD3\05 - Charges.wav
     Peak level 48.8 %
     Extraction speed 1.5 X
     Track quality 100.0 %
     Test CRC 5C6CDF85
     Copy CRC 5C6CDF85
     Track not present in AccurateRip database
     Copy OK
None of the tracks are present in the AccurateRip database
No errors occurred
End of status report

Индексная карта (non-compilant .cue)

CD 1

Код:
REM GENRE "Hard Rock"
REM DATE 2017
REM DISCID 980E6A0A
REM COMMENT "ExactAudioCopy v1.0b3"
CATALOG 5034504950542
PERFORMER "Black Sabbath"
TITLE "The End - CD1"
FILE "01 - Black Sabbath.wav" WAVE
  TRACK 01 AUDIO
    TITLE "Black Sabbath"
    PERFORMER "Black Sabbath"
    ISRC GBCBR1700216
    INDEX 01 00:00:00
FILE "02 - Fairies Wear Boots.wav" WAVE
  TRACK 02 AUDIO
    TITLE "Fairies Wear Boots"
    PERFORMER "Black Sabbath"
    ISRC GBCBR1700217
    INDEX 01 00:00:00
FILE "03 - Under The Sun.wav" WAVE
  TRACK 03 AUDIO
    TITLE "Under The Sun"
    PERFORMER "Black Sabbath"
    ISRC GBCBR1700218
    INDEX 01 00:00:00
FILE "04 - After Forever.wav" WAVE
  TRACK 04 AUDIO
    TITLE "After Forever"
    PERFORMER "Black Sabbath"
    ISRC GBCBR1700219
    INDEX 01 00:00:00
FILE "05 - Into The Void.wav" WAVE
  TRACK 05 AUDIO
    TITLE "Into The Void"
    PERFORMER "Black Sabbath"
    ISRC GBCBR1700219
    INDEX 01 00:00:00
FILE "06 - Snowblind.wav" WAVE
  TRACK 06 AUDIO
    TITLE "Snowblind"
    PERFORMER "Black Sabbath"
    ISRC GBCBR1700221
    INDEX 01 00:00:00
FILE "07 - Band Introductions.wav" WAVE
  TRACK 07 AUDIO
    TITLE "Band Introductions"
    PERFORMER "Black Sabbath"
    ISRC GBCBR1700222
    INDEX 01 00:00:00
FILE "08 - War Pigs.wav" WAVE
  TRACK 08 AUDIO
    TITLE "War Pigs"
    PERFORMER "Black Sabbath"
    ISRC GBCBR1700223
    INDEX 01 00:00:00
FILE "09 - Behind The Wall Of Sleep.wav" WAVE
  TRACK 09 AUDIO
    TITLE "Behind The Wall Of Sleep"
    PERFORMER "Black Sabbath"
    ISRC GBCBR1700224
    INDEX 01 00:00:00
FILE "10 - Bassically , N.I.B..wav" WAVE
  TRACK 10 AUDIO
    TITLE "Bassically / N.I.B."
    PERFORMER "Black Sabbath"
    ISRC GBCBR1700224
    INDEX 01 00:00:00

CD 2

Код:
REM GENRE "Hard Rock"
REM DATE 2017
REM DISCID 470AE907
REM COMMENT "ExactAudioCopy v1.0b3"
CATALOG 5034504950641
PERFORMER "Black Sabbath"
TITLE "The End - CD2"
FILE "01 - Hand Of Doom.wav" WAVE
  TRACK 01 AUDIO
    TITLE "Hand Of Doom"
    PERFORMER "Black Sabbath"
    ISRC GBCBR1700226
    INDEX 01 00:00:00
FILE "02 - Medley.wav" WAVE
  TRACK 02 AUDIO
    TITLE "Medley"
    PERFORMER "Black Sabbath"
    ISRC GBCBR1700227
    INDEX 01 00:00:00
FILE "03 - Rat Salad , Drum Solo.wav" WAVE
  TRACK 03 AUDIO
    TITLE "Rat Salad / Drum Solo"
    PERFORMER "Black Sabbath"
    ISRC GBCBR1700228
    INDEX 01 00:00:00
FILE "04 - Iron Man.wav" WAVE
  TRACK 04 AUDIO
    TITLE "Iron Man"
    PERFORMER "Black Sabbath"
    ISRC GBCBR1700229
    INDEX 01 00:00:00
FILE "05 - Dirty Women.wav" WAVE
  TRACK 05 AUDIO
    TITLE "Dirty Women"
    PERFORMER "Black Sabbath"
    ISRC GBCBR1700230
    INDEX 01 00:00:00
FILE "06 - Children Of The Grave.wav" WAVE
  TRACK 06 AUDIO
    TITLE "Children Of The Grave"
    PERFORMER "Black Sabbath"
    ISRC GBCBR1700231
    INDEX 01 00:00:00
FILE "07 - Paranoid.wav" WAVE
  TRACK 07 AUDIO
    TITLE "Paranoid"
    PERFORMER "Black Sabbath"
    ISRC GBCBR1700232
    INDEX 01 00:00:00

CD 3

Код:
REM GENRE "Hard Rock"
REM DATE 2017
REM DISCID 39053A05
REM COMMENT "ExactAudioCopy v1.0b3"
CATALOG 5034504950740
PERFORMER "Black Sabbath"
TITLE "The End - Angelic Studios"
FILE "01 - The Wizard.wav" WAVE
  TRACK 01 AUDIO
    TITLE "The Wizard"
    PERFORMER "Black Sabbath"
    ISRC GBCBR1700211
    INDEX 01 00:00:00
FILE "02 - Wicked World.wav" WAVE
  TRACK 02 AUDIO
    TITLE "Wicked World"
    PERFORMER "Black Sabbath"
    ISRC GBCBR1700212
    INDEX 01 00:00:00
FILE "03 - Sweet Leaf.wav" WAVE
  TRACK 03 AUDIO
    TITLE "Sweet Leaf"
    PERFORMER "Black Sabbath"
    ISRC GBCBR1700213
    INDEX 01 00:00:00
FILE "04 - Tomorrow's Dream.wav" WAVE
  TRACK 04 AUDIO
    TITLE "Tomorrow's Dream"
    PERFORMER "Black Sabbath"
    ISRC GBCBR1700214
    INDEX 01 00:00:00
FILE "05 - Charges.wav" WAVE
  TRACK 05 AUDIO
    TITLE "Charges"
    PERFORMER "Black Sabbath"
    ISRC GBCBR1700215
    INDEX 01 00:00:00

Состав группы:

Ozzy Osbourne - Vocals
Tony Iommi - Guitar
Geezer Butler - Bass
Tommy Clufetos - Drums
Adam Wakeman - Keyboards / Guitar
--

_________________
Разница между теорией и практикой в том, что теоретически разницы между теорией и практикой нет, а на практике она есть.
[Профиль] [ЛС]
Показать сообщения:    

Текущее время: Сегодня 11:17

Часовой пояс: GMT + 3



Вы не можете начинать темы
Вы не можете отвечать на сообщения
Вы не можете редактировать свои сообщения
Вы не можете удалять свои сообщения
Вы не можете голосовать в опросах
Вы не можете прикреплять файлы к сообщениям
Вы не можете скачивать файлы