Золотые дни идет свободное скачивание без начисления Download
 

Офлайн

sergej644

Стаж:
5 лет 1 месяц
Сообщений:
818

-Dirkschneider - Live - Back to the Roots (2CD) --
Год издания: 2016
Страна: Germany
Жанр: Heavy Metal
Продолжительность: 02:09:42-Лейбл издания: AFM Records
Страна-выпуска диска: EU
Номер по каталогу: AFM 587-9-Формат: FLAC
Битрейт аудио: Lossless
Тип рипа: image +.cue
Наличие сканов в содержимом раздачи: front
-

Трэклист

CD 1 | 01:05:44


01. Intro (2:32)
02. Starlight (3:43)
03. Living For Tonite (4:01)
04. Flash Rockin' Man (4:22)
05. London Leatherboys (4:58)
06. Midnight Mover (3:34)
07. Breaker (4:49)
08. Head Over Heals (5:31)
09. Neon Nights (9:04)
10. Princess Of The Dawn (11:03)
11. Winterdreams (5:41)
12. Restless And Wild (2:56)
13. Son Of A Bitch (3:30)

CD 2 | 01:03:58


01. Up To The Limit (4:52)
02. Wrong Is Right (3:13)
03. Midnight Highway (3:58)
04. Screaming For A Love-Bite (4:24)
05. Monsterman (3:13)
06. T.V. War (3:34)
07. Losers And Winners (6:27)
08. Metal Heart (8:24)
09. I'm A Rebel (3:30)
10. Fast As A Shark (4:57)
11. Balls To The Wall (9:04)
12. Burning (8:21)
-

Лог создания рипа

CD 1

Код:
Exact Audio Copy V1.0 beta 3 from 29. August 2011
Отчёт EAC об извлечении, выполненном 10. ноября 2016, 20:38
Dirkschneider / Live - Back To The Roots (CD1)
Дисковод: ASUS    DRW-20B1ST   Adapter: 5  ID: 0
Режим чтения                 : Достоверность
Использование точного потока : Да
Отключение кэша аудио        : Да
Использование указателей C2  : Нет
Коррекция смещения при чтении                     : 6
Способность читать области Lead-in и Lead-out     : Нет
Заполнение пропущенных сэмплов тишиной            : Да
Удаление блоков с тишиной в начале и конце        : Нет
При вычислениях CRC использовались нулевые сэмплы : Да
Интерфейс                                         : Встроенный Win32-интерфейс для Win NT/2000
Выходной формат : Внутренние WAV-операции
Формат сэмплов  : 44.100 Гц; 16 бит; стерео
TOC извлечённого CD
     Трек |   Старт  | Длительность | Начальный сектор | Конечный сектор
    ---------------------------------------------------------------------
       1  |  0:00.00 |    2:31.44   |           0      |      11368
       2  |  2:31.44 |    3:42.64   |       11369      |      28082
       3  |  6:14.33 |    4:00.65   |       28083      |      46147
       4  | 10:15.23 |    4:21.67   |       46148      |      65789
       5  | 14:37.15 |    4:58.27   |       65790      |      88166
       6  | 19:35.42 |    3:33.68   |       88167      |     104209
       7  | 23:09.35 |    4:48.43   |      104210      |     125852
       8  | 27:58.03 |    5:30.74   |      125853      |     150676
       9  | 33:29.02 |    9:04.03   |      150677      |     191479
      10  | 42:33.05 |   11:03.28   |      191480      |     241232
      11  | 53:36.33 |    5:41.11   |      241233      |     266818
      12  | 59:17.44 |    2:56.30   |      266819      |     280048
      13  | 62:13.74 |    3:30.32   |      280049      |     295830
Характеристики диапазона извлечения и сообщения об ошибках
Выбранный диапазон
     Имя файла E:\!Music RIP FLAC\Dirkschneider\[2016] Live - Back to the Roots\CD1\Dirkschneider - Live - Back To The Roots (CD1).wav
     Пиковый уровень 97.6 %
     Скорость извлечения 4.9 X
     Качество диапазона 100.0 %
     CRC теста 8B3FB520
     CRC копии 8B3FB520
     Копирование... OK
Ошибок не произошло
AccurateRip: сводка
Трек  1  отсутствует в базе данных
Трек  2  отсутствует в базе данных
Трек  3  отсутствует в базе данных
Трек  4  отсутствует в базе данных
Трек  5  отсутствует в базе данных
Трек  6  отсутствует в базе данных
Трек  7  отсутствует в базе данных
Трек  8  отсутствует в базе данных
Трек  9  отсутствует в базе данных
Трек 10  отсутствует в базе данных
Трек 11  отсутствует в базе данных
Трек 12  отсутствует в базе данных
Трек 13  отсутствует в базе данных
Ни одного трека нет в базе AccurateRip
Конец отчёта

CD 2

Код:
Exact Audio Copy V1.0 beta 3 from 29. August 2011
Отчёт EAC об извлечении, выполненном 10. ноября 2016, 21:09
Dirkschneider / Live - Back To The Roots (CD2)
Дисковод: ASUS    DRW-20B1ST   Adapter: 5  ID: 0
Режим чтения                 : Достоверность
Использование точного потока : Да
Отключение кэша аудио        : Да
Использование указателей C2  : Нет
Коррекция смещения при чтении                     : 6
Способность читать области Lead-in и Lead-out     : Нет
Заполнение пропущенных сэмплов тишиной            : Да
Удаление блоков с тишиной в начале и конце        : Нет
При вычислениях CRC использовались нулевые сэмплы : Да
Интерфейс                                         : Встроенный Win32-интерфейс для Win NT/2000
Выходной формат : Внутренние WAV-операции
Формат сэмплов  : 44.100 Гц; 16 бит; стерео
TOC извлечённого CD
     Трек |   Старт  | Длительность | Начальный сектор | Конечный сектор
    ---------------------------------------------------------------------
       1  |  0:00.00 |    4:51.45   |           0      |      21869
       2  |  4:51.45 |    3:12.46   |       21870      |      36315
       3  |  8:04.16 |    3:57.70   |       36316      |      54160
       4  | 12:02.11 |    4:24.28   |       54161      |      73988
       5  | 16:26.39 |    3:13.31   |       73989      |      88494
       6  | 19:39.70 |    3:34.11   |       88495      |     104555
       7  | 23:14.06 |    6:27.26   |      104556      |     133606
       8  | 29:41.32 |    8:24.04   |      133607      |     171410
       9  | 38:05.36 |    3:30.34   |      171411      |     187194
      10  | 41:35.70 |    4:56.74   |      187195      |     209468
      11  | 46:32.69 |    9:03.69   |      209469      |     250262
      12  | 55:36.63 |    8:21.12   |      250263      |     287849
Характеристики диапазона извлечения и сообщения об ошибках
Выбранный диапазон
     Имя файла E:\!Music RIP FLAC\Dirkschneider\[2016] Live - Back to the Roots\CD2\Dirkschneider - Live - Back To The Roots (CD2).wav
     Пиковый уровень 97.7 %
     Скорость извлечения 4.8 X
     Качество диапазона 100.0 %
     CRC теста 1C2119A5
     CRC копии 1C2119A5
     Копирование... OK
Ошибок не произошло
AccurateRip: сводка
Трек  1  отсутствует в базе данных
Трек  2  отсутствует в базе данных
Трек  3  отсутствует в базе данных
Трек  4  отсутствует в базе данных
Трек  5  отсутствует в базе данных
Трек  6  отсутствует в базе данных
Трек  7  отсутствует в базе данных
Трек  8  отсутствует в базе данных
Трек  9  отсутствует в базе данных
Трек 10  отсутствует в базе данных
Трек 11  отсутствует в базе данных
Трек 12  отсутствует в базе данных
Ни одного трека нет в базе AccurateRip
Конец отчёта

Индексная карта (non-compilant .cue)

CD 1

Код:
REM GENRE "Heavy Metal"
REM DATE 2016
REM DISCID B90F680D
REM COMMENT "ExactAudioCopy v1.0b3"
PERFORMER "Dirkschneider"
TITLE "Live - Back To The Roots (CD1)"
FILE "Dirkschneider - Live - Back To The Roots (CD1).flac" WAVE
  TRACK 01 AUDIO
    TITLE "Intro"
    PERFORMER "Dirkschneider"
    INDEX 01 00:00:00
  TRACK 02 AUDIO
    TITLE "Starlight"
    PERFORMER "Dirkschneider"
    INDEX 01 02:31:44
  TRACK 03 AUDIO
    TITLE "Living For Tonite"
    PERFORMER "Dirkschneider"
    INDEX 01 06:14:33
  TRACK 04 AUDIO
    TITLE "Flash Rockin' Man"
    PERFORMER "Dirkschneider"
    INDEX 01 10:15:23
  TRACK 05 AUDIO
    TITLE "London Leatherboys"
    PERFORMER "Dirkschneider"
    INDEX 01 14:37:15
  TRACK 06 AUDIO
    TITLE "Midnight Mover"
    PERFORMER "Dirkschneider"
    INDEX 01 19:35:42
  TRACK 07 AUDIO
    TITLE "Breaker"
    PERFORMER "Dirkschneider"
    INDEX 01 23:09:35
  TRACK 08 AUDIO
    TITLE "Head Over Heals"
    PERFORMER "Dirkschneider"
    INDEX 01 27:58:03
  TRACK 09 AUDIO
    TITLE "Neon Nights"
    PERFORMER "Dirkschneider"
    INDEX 01 33:29:02
  TRACK 10 AUDIO
    TITLE "Princess Of The Dawn"
    PERFORMER "Dirkschneider"
    INDEX 01 42:33:05
  TRACK 11 AUDIO
    TITLE "Winterdreams"
    PERFORMER "Dirkschneider"
    INDEX 01 53:36:33
  TRACK 12 AUDIO
    TITLE "Restless And Wild"
    PERFORMER "Dirkschneider"
    INDEX 01 59:17:44
  TRACK 13 AUDIO
    TITLE "Son Of A Bitch"
    PERFORMER "Dirkschneider"
    INDEX 01 62:13:74

CD 2

Код:
REM GENRE "Heavy Metal"
REM DATE 2016
REM DISCID C90EFE0C
REM COMMENT "ExactAudioCopy v1.0b3"
PERFORMER "Dirkschneider"
TITLE "Live - Back To The Roots (CD2)"
FILE "Dirkschneider - Live - Back To The Roots (CD2).flac" WAVE
  TRACK 01 AUDIO
    TITLE "Up To The Limit"
    PERFORMER "Dirkschneider"
    INDEX 01 00:00:00
  TRACK 02 AUDIO
    TITLE "Wrong Is Right"
    PERFORMER "Dirkschneider"
    INDEX 01 04:51:45
  TRACK 03 AUDIO
    TITLE "Midnight Highway"
    PERFORMER "Dirkschneider"
    INDEX 01 08:04:16
  TRACK 04 AUDIO
    TITLE "Screaming For A Love-Bite"
    PERFORMER "Dirkschneider"
    INDEX 01 12:02:11
  TRACK 05 AUDIO
    TITLE "Monsterman"
    PERFORMER "Dirkschneider"
    INDEX 01 16:26:39
  TRACK 06 AUDIO
    TITLE "T.V. War"
    PERFORMER "Dirkschneider"
    INDEX 01 19:39:70
  TRACK 07 AUDIO
    TITLE "Losers And Winners"
    PERFORMER "Dirkschneider"
    INDEX 01 23:14:06
  TRACK 08 AUDIO
    TITLE "Metal Heart"
    PERFORMER "Dirkschneider"
    INDEX 01 29:41:32
  TRACK 09 AUDIO
    TITLE "I'm A Rebel"
    PERFORMER "Dirkschneider"
    INDEX 01 38:05:36
  TRACK 10 AUDIO
    TITLE "Fast As A Shark"
    PERFORMER "Dirkschneider"
    INDEX 01 41:35:70
  TRACK 11 AUDIO
    TITLE "Balls To The Wall"
    PERFORMER "Dirkschneider"
    INDEX 01 46:32:69
  TRACK 12 AUDIO
    TITLE "Burning"
    PERFORMER "Dirkschneider"
    INDEX 01 55:36:63
--

_________________
Разница между теорией и практикой в том, что теоретически разницы между теорией и практикой нет, а на практике она есть.
[Профиль] [ЛС]
Показать сообщения:    

Текущее время: Сегодня 23:18

Часовой пояс: GMT + 3



Вы не можете начинать темы
Вы не можете отвечать на сообщения
Вы не можете редактировать свои сообщения
Вы не можете удалять свои сообщения
Вы не можете голосовать в опросах
Вы не можете прикреплять файлы к сообщениям
Вы не можете скачивать файлы