(Power Metal) Primal Fear - Angels Of Mercy (Live In Germany)(CD+DVD) - 2017 [FLAC, image +.cue, lossless] :: Bit-Torrent Трекер Emtrek.org
 
Золотые дни идет свободное скачивание без начисления Download
 

Офлайн

sergej644

Стаж:
5 лет 7 месяцев
Сообщений:
868

-Primal Fear - Angels Of Mercy (Live In Germany)--
Год издания: 2017
Страна: Germany
Жанр: Power Metal
Продолжительность: 01:13:06-Лейбл издания: Frontiers Records
Страна-выпуска диска: Italy
Номер по каталогу: FR CDVD 798-Формат: FLAC
Битрейт аудио: Lossless
Тип рипа: image +.cue
Наличие сканов в содержимом раздачи: да
-

Трэклист


01. Countdown To Insanity (1:58)
02. Final Embrace (6:01)
03. In Metal We Trust (4:05)
04. Angel In Black (3:40)
05. Rulebreaker (4:58)
06. Sign Of Fear (4:10)
07. Seven Seals (3:46)
08. Angels Of Mercy (3:48)
09. The End Is Near (5:10)
10. Rollercoaster (5:19)
11. The Sky Is Burning (6:12)
12. Nuclear Fire (4:55)
13. When Death Comes Knocking (4:47)
14. Metal Is Forever (5:21)
15. Fighting The Darkness (8:56)
-

Лог создания рипа

Код:
Exact Audio Copy V1.3 from 2. September 2016
EAC extraction logfile from 23. June 2017, 0:17
Primal Fear / Angels Of Mercy (Live In Germany)
Used drive  : ATAPI   iHAS122   W   Adapter: 2  ID: 0
Read mode               : Secure
Utilize accurate stream : Yes
Defeat audio cache      : Yes
Make use of C2 pointers : No
Read offset correction                      : 48
Overread into Lead-In and Lead-Out          : No
Fill up missing offset samples with silence : Yes
Delete leading and trailing silent blocks   : No
Null samples used in CRC calculations       : Yes
Used interface                              : Installed external ASPI interface
Used output format              : User Defined Encoder
Selected bitrate                : 1024 kBit/s
Quality                         : High
Add ID3 tag                     : No
Command line compressor         : C:\Program Files\FLAC\flac.exe
Additional command line options : -V -8 -T "Date=%year%" -T "Genre=%genre%" -T"COMMENT=Ripped by  Ilijan - ilko" -8 -V %source%
TOC of the extracted CD
     Track |   Start  |  Length  | Start sector | End sector
    ---------------------------------------------------------
        1  |  0:00.00 |  1:58.11 |         0    |     8860
        2  |  1:58.11 |  6:01.06 |      8861    |    35941
        3  |  7:59.17 |  4:04.64 |     35942    |    54305
        4  | 12:04.06 |  3:39.53 |     54306    |    70783
        5  | 15:43.59 |  4:57.49 |     70784    |    93107
        6  | 20:41.33 |  4:09.63 |     93108    |   111845
        7  | 24:51.21 |  3:46.23 |    111846    |   128818
        8  | 28:37.44 |  3:48.23 |    128819    |   145941
        9  | 32:25.67 |  5:09.41 |    145942    |   169157
       10  | 37:35.33 |  5:18.69 |    169158    |   193076
       11  | 42:54.27 |  6:12.06 |    193077    |   220982
       12  | 49:06.33 |  4:55.07 |    220983    |   243114
       13  | 54:01.40 |  4:47.30 |    243115    |   264669
       14  | 58:48.70 |  5:21.17 |    264670    |   288761
       15  | 64:10.12 |  8:56.05 |    288762    |   328966
Range status and errors
Selected range
     Filename D:\ilko\Primal Fear - Angels Of Mercy (Live In Germany).wav
     Peak level 97.7 %
     Extraction speed 4.3 X
     Range quality 100.0 %
     Test CRC 52B3EC81
     Copy CRC 52B3EC81
     Copy OK
No errors occurred
AccurateRip summary
Track  1  not present in database
Track  2  not present in database
Track  3  not present in database
Track  4  not present in database
Track  5  not present in database
Track  6  not present in database
Track  7  not present in database
Track  8  not present in database
Track  9  not present in database
Track 10  not present in database
Track 11  not present in database
Track 12  not present in database
Track 13  not present in database
Track 14  not present in database
Track 15  not present in database
None of the tracks are present in the AccurateRip database
End of status report
---- CUETools DB Plugin V2.1.6
[CTDB TOCID: pIbFha9T2BmwpT86USFRkPeow0Q-] found
Submit result: pIbFha9T2BmwpT86USFRkPeow0Q- has been confirmed
Track | CTDB Status
  1   | (4/4) Accurately ripped
  2   | (4/4) Accurately ripped
  3   | (4/4) Accurately ripped
  4   | (4/4) Accurately ripped
  5   | (4/4) Accurately ripped
  6   | (4/4) Accurately ripped
  7   | (4/4) Accurately ripped
  8   | (4/4) Accurately ripped
  9   | (4/4) Accurately ripped
10   | (4/4) Accurately ripped
11   | (4/4) Accurately ripped
12   | (4/4) Accurately ripped
13   | (4/4) Accurately ripped
14   | (4/4) Accurately ripped
15   | (4/4) Accurately ripped

Индексная карта (non-compilant .cue)

Код:
REM GENRE "Power Metal"
REM DATE 2017
REM DISCID D911220F
REM COMMENT "ExactAudioCopy v1.3"
PERFORMER "Primal Fear"
TITLE "Angels Of Mercy (Live In Germany)"
FILE "Primal Fear - Angels Of Mercy (Live In Germany).flac" WAVE
  TRACK 01 AUDIO
    TITLE "Countdown To Insanity"
    PERFORMER "Primal Fear"
    INDEX 01 00:00:00
  TRACK 02 AUDIO
    TITLE "Final Embrace"
    PERFORMER "Primal Fear"
    INDEX 01 01:58:11
  TRACK 03 AUDIO
    TITLE "In Metal We Trust"
    PERFORMER "Primal Fear"
    INDEX 01 07:59:17
  TRACK 04 AUDIO
    TITLE "Angel In Black"
    PERFORMER "Primal Fear"
    INDEX 01 12:04:06
  TRACK 05 AUDIO
    TITLE "Rulebreaker"
    PERFORMER "Primal Fear"
    INDEX 01 15:43:59
  TRACK 06 AUDIO
    TITLE "Sign Of Fear"
    PERFORMER "Primal Fear"
    INDEX 01 20:41:33
  TRACK 07 AUDIO
    TITLE "Seven Seals"
    PERFORMER "Primal Fear"
    INDEX 01 24:51:21
  TRACK 08 AUDIO
    TITLE "Angels Of Mercy"
    PERFORMER "Primal Fear"
    INDEX 01 28:37:44
  TRACK 09 AUDIO
    TITLE "The End Is Near"
    PERFORMER "Primal Fear"
    INDEX 01 32:25:67
  TRACK 10 AUDIO
    TITLE "Rollercoaster"
    PERFORMER "Primal Fear"
    INDEX 01 37:35:33
  TRACK 11 AUDIO
    TITLE "The Sky Is Burning"
    PERFORMER "Primal Fear"
    INDEX 01 42:54:27
  TRACK 12 AUDIO
    TITLE "Nuclear Fire"
    PERFORMER "Primal Fear"
    INDEX 01 49:06:33
  TRACK 13 AUDIO
    TITLE "When Death Comes Knocking"
    PERFORMER "Primal Fear"
    INDEX 01 54:01:40
  TRACK 14 AUDIO
    TITLE "Metal Is Forever"
    PERFORMER "Primal Fear"
    INDEX 01 58:48:70
  TRACK 15 AUDIO
    TITLE "Fighting The Darkness"
    PERFORMER "Primal Fear"
    INDEX 01 64:10:12
--

_________________
Разница между теорией и практикой в том, что теоретически разницы между теорией и практикой нет, а на практике она есть.
[Профиль] [ЛС]
Показать сообщения:    

Текущее время: Сегодня 11:16

Часовой пояс: GMT + 3



Вы не можете начинать темы
Вы не можете отвечать на сообщения
Вы не можете редактировать свои сообщения
Вы не можете удалять свои сообщения
Вы не можете голосовать в опросах
Вы не можете прикреплять файлы к сообщениям
Вы не можете скачивать файлы