Золотые дни идет свободное скачивание без начисления Download
 

Офлайн

sergej644

Стаж:
5 лет 1 месяц
Сообщений:
814

-Don Airey - Discography (Solo Projects)(4CD)--
Год издания: 1988 - 2014
Страна: England
Жанр: Hard Rock, Progressive Rock, Space Rock
Продолжительность: 03:55:18-Лейбл издания: MCA Records, Mascot Records, IROND
Страна-выпуска диска: Korea, Russia, EU, Japan
Номер по каталогу: SPCD 0033, CD 08-DD642, MTR 7304 2, KICP-1689-Формат: FLAC
Битрейт аудио: Lossless
Тип рипа: image +.cue
Наличие сканов в содержимом раздачи: да
--Don Airey (Дон Эйри) - легендарный британский пианист-виртуоз, органист, композитор, аранжировщик cотрудничал с Rainbow, Whitesnake, Ozzy, Gary Moore, Black Sabbath, Thin Lizzy, Jethro Tull, UFO, Ten, Judas Priest а также работал и выступал с Брайаном Мэйем, Кози Пауэлом, Брюсом Дикинсоном и др. многими известными группами в качестве сессионного музыканта. Наиболее известен на данный момент как клавишник «Deep Purple»

Трэклист

1988 - K2 - Tales Of Triumph And Tragedy (Sail Music SPCD 0033, 2005 Korea)


01. K2 Overture (3:16)
02. Sea Of Dreams (Part 1) (3:14)
03. Sea Of Dreams (Part 2) (3:50)
04. Voice Of The Mountain (1:28)
05. Song For Al (instrumental) (4:12)
06. Balti Lament (1:20)
07. Ascent To Camp (3:26)
08. Can't Make Up Your Mind (4:21)
09. Summit Push (1:20)
10. Close To The Sky (1:25)
11. Blues For J.T. (0:45)
12. Julie (If You Leave Me) (4:18)
13. Death Zone/ Whiteout (8:01)
14. Song For Al (vocal) (5:14)
15. Take Me Home (bonus) (5:09)

Members:
• Don Airey / keyboards
• Gary Moore, Keith Airey / guitar
• Cozy Powell / drums
• Laurence Cottle / bass
• Chris Thompson, Colin Blunstone, Mel Galley, Genki Hitomi / vocals
----------------------
Kонцептуальный aльбом посвящен трагической альпинистской
экспедиции на К2 (Катчеджангу). Не удивительно, что в сейшне участвовали одни гранды - покойныe ныне Пауэлл, Гэри Мур,... Томпсон из MMEB...

2008 - A Light In The Sky (IROND CD 08-DD642, 2008 RU)


01. Big Bang (1:06)
02. Ripples In The Fabric Of Time (5:40)
03. Shooting Star (4:47)
04. Space Troll Patrol (3:41)
05. Andromeda M31 (4:27)
06. Endless Night (5:06)
07. Rocket To The Moon (1:20)
08. Lift Off (0:55)
09. Love You Too Much (4:00)
10. Cartwheel ESO 350-40 (0:59)
11. Sombrero M104 (3:04)
12. Into Orbit (3:02)
13. A Light In The Sky (Pt 2) (7:10)
14. Pale Blue Dot (3:05)
15. Metallicity (1:13)
16. Big Crunch (6:48)
17. Lost In The End Of Time (4:18)

Members:
• Don Airey / Keyboards
• Rob Harris / Guitar
• Laurence Cottle / Bass
• Chris Childs / Bass
• Darrin Mooney / Drums
• Harry James / Drums, Vocals
• Lidia Baich / Violin
• Danny Bowes / Vocals
• Carl Sentance / Vocals
----------------------
В отличие от «экстремально нью-эйджевого» дебюта «K2, Tales Of Thiumph And Agony» (1992), вторая работа не нуждающегося в представлении клавишника-виртуоза Дона Эйри как будто нарочно записана для удовлетворения вечно ненасытных поклонников Deep Purple – Дон весьма злоупотребляет в этих пьесах астрономической тематики типично джонлордовским органом Hammond. Тот же, чей кругозор пошире, с радостью воспримет «A Light In The Sky» как логическое продолжение работы Дона на первых двух LP полузабытого фьюжн-состава Colosseum II – ведь эти полеты в неведомое на Hammond и витажных синтезаторах Moog не исключают наличие замечательных песенных номеров, исполненных Дэнни Боуэсом (Thunder) и Карлом Сентэнсом (экс-Persian Risk и GZR). Настоящая сверхновая классика хард-рока.
Маэстро Эйри (в отсутствии Лорда) порадовал мощной органной работой. Музыка на любой (роковый) вкус. Эмерсон и Ж.М. Жар, конечно - Дип и Уэйкман, все упаковал в "космическую" оболочку Эйри, сделав это, по-мастерски, здорово, и слушается альбом на одном дыхании. "Нынешний органист Deep Purple по природе своей человек скромный, однако цену себе знает. Плотный гастрольный график Дона Эйри до поры не позволял ему заняться приятным процессом удовлетворения творческих амбиций. В 2007 году возможность наконец-то представилась. Маститый клавишник изыскал "минуточку", дабы прийти в студию и сделать то, чего душа желала на протяжении многих лет (предыдущий сольник Дона "K2 (Сказки Триумф и трагедия)" был издан аж в 1988 г.). Сразу скажу, что в отличие от вальяжного Джона Лорда, прочно примкнувшего к сонму "ваятелей" оркестровых шедевров, Эйри, за плечами которого серьезное музыкальное образование, остается верен рок-идеалам. Причем, не только хардового образца.
"Свет в небо" - произведение удачное во всех отношениях. Научно-фантастическая смысловая основа, как правило, подразумевает широкий спектр выразительных средств. И здесь оно есть. Стилистические границы диска простираются от мощнейших вокальноориентированных рок-боевиков в лучших традициях Purple / Rainbow (таковых меньшинство, конкретнее, 4 из 17 треков) до крайне интересных инструментальных симфо-проговых экскурсов в духе Рика Уэйкмана и Кита Эмерсона. К процессу мистер Эйри подошел очень ответственно, задействовав по паре ударников и басистов, трех вокалистов и гитариста старой школы Роба Харриса. В саунде, естественно доминирует орган Hammond 100, на котором маэстро играет уже несколько десятилетий. Признаться, столь "вкусной" и колоритной манеры исполнения давненько не приходилось слышать! Палитра соткана из контрастов: виртуозная клавишная бравада с легким юморным подтекстом ("Космос Тролльский дозор") незаметно перетекает в красивейшие космические элегии ("Андромеда М31") и интролюдии ("Lift Off"). Есть и совсем уж экзотические мелодические решения типа спэйс-болеро "Somarero M104" (у кого еще встретишь подобное?); И прозрачные камерные этюды консерваторского плана, являющие слушателю затейливо-виртуозный дуэт фортепиано со скрипкой от специально приглашенной Лидии Бэйч. Отдельно хочется выделить отменную работу звукорежиссера Натана Сэйджа, сумевшего увязать в нерасторжимое целое достижения высоких технологий с консервативным саундом классик-рока.
Итог: великолепный динамичный релиз, однозначно рекомендуемый каждому меломану."

2011 - All Out (Mascot Records MTR 7304 2, 2011 EU)


01. The Way I Feel Inside (4:25)
02. Estancia (5:37)
03. People in Your Head (5:01)
04. B'cos (4:55)
05. Running from the Shadows (3:42)
06. Right Arm Overture (7:13)
07. Fire (5:14)
08. Long Road (4:35)
09. Wrath of Thor (4:26)
10. Tobruk (10:37)

Members:
• Don Airey / Keyboards
• Darrin Mooney / Drums
• Laurense Cottle / Bass
• Rob Harris / Guitar
• Carl Sentance / Vocals
----------------------
22 августа 2011г. выпустил свой новый сольный альбом. Просто потрясная работа – для поклонников его таланта настоящий подарок!

2014 - Keyed Up (Mascot Label Group KICP-1689, 2014 Japan 1st press)


01. 3 In The Morning (4:17)
02. Beat The Retreat (5:55)
03. Blue Rondo A La Turk (5:15)
04. Solomons Song (5:38)
05. Claire D'Loon (5:12)
06. Flight Of Inspiration (4:34)
07. Inside The Godbox (0:37)
08. Difficult To Cure 2013 (5:44)
09. Mini Suite (7:03)
10. Adagio (5:23)
11. Grace (4:22)
12. Love You Too Much (Bonus Track) (4:03)
13. The Way I Feel Inside (Bonus Track) (4:28)
14. People In Your Head (Bonus Track) (5:01)

Members:
• Don Airey / Keyboards
• Darrin Mooney / Drums
• Laurence Cottle / Bass
• Rob Harris / Guitar
• Carl Sentance / Vocals
With:
• Gary Moore / guitar on ‘Adagio’ and ‘Mini Suite’
• Graham Bonnet, Simon MacBride, Alex Meadows, Tim Goodyer
Special guests on guitar: Joe Bonamassa, Bernie Marsden, Keith Airey
Producer – Don Airey
Japanese version 3 extra tracks
-

+

1988 - K2 - Tales Of Triumph And Tragedy (Sail Music SPCD 0033, 2005 Korea)

Лог создания рипа

Код:
Exact Audio Copy V1.3 from 2. September 2016
EAC extraction logfile from 15. January 2017, 19:40
Don Airey - K2 / Tales of Triumph And Tragedy (Sail Music SPCD 0033)
Used drive  : HL-DT-STDVDRAM GH22NS70   Adapter: 1  ID: 1
Read mode               : Secure
Utilize accurate stream : Yes
Defeat audio cache      : Yes
Make use of C2 pointers : No
Read offset correction                      : 667
Overread into Lead-In and Lead-Out          : No
Fill up missing offset samples with silence : Yes
Delete leading and trailing silent blocks   : No
Null samples used in CRC calculations       : Yes
Used interface                              : Installed external ASPI interface
Used output format              : User Defined Encoder
Selected bitrate                : 128 kBit/s
Quality                         : High
Add ID3 tag                     : No
Command line compressor         : C:\Program Files (x86)\Exact Audio Copy\Flac\flac.exe
Additional command line options : -V -8 -T "Date=%year%" -T "Genre=%genre%" %source%
TOC of the extracted CD
     Track |   Start  |  Length  | Start sector | End sector
    ---------------------------------------------------------
        1  |  0:00.00 |  3:15.74 |         0    |    14698
        2  |  3:15.74 |  3:13.67 |     14699    |    29240
        3  |  6:29.66 |  3:49.70 |     29241    |    46485
        4  | 10:19.61 |  1:28.05 |     46486    |    53090
        5  | 11:47.66 |  4:11.68 |     53091    |    71983
        6  | 15:59.59 |  1:19.40 |     71984    |    77948
        7  | 17:19.24 |  3:25.47 |     77949    |    93370
        8  | 20:44.71 |  4:20.60 |     93371    |   112930
        9  | 25:05.56 |  1:19.58 |    112931    |   118913
       10  | 26:25.39 |  1:25.02 |    118914    |   125290
       11  | 27:50.41 |  0:44.70 |    125291    |   128660
       12  | 28:35.36 |  4:17.63 |    128661    |   147998
       13  | 32:53.24 |  8:01.17 |    147999    |   184090
       14  | 40:54.41 |  5:14.12 |    184091    |   207652
       15  | 46:08.53 |  5:09.20 |    207653    |   230847
Range status and errors
Selected range
     Filename C:\Users\breaker65\Desktop\1988 • K2\Don Airey - K2 - Tales of Triumph And Tragedy (Sail Music SPCD 0033).wav
     Peak level 100.0 %
     Extraction speed 1.7 X
     Range quality 99.9 %
     Test CRC 27CC47A6
     Copy CRC 27CC47A6
     Copy OK
No errors occurred
AccurateRip summary
Track  1  not present in database
Track  2  not present in database
Track  3  not present in database
Track  4  not present in database
Track  5  not present in database
Track  6  not present in database
Track  7  not present in database
Track  8  not present in database
Track  9  not present in database
Track 10  not present in database
Track 11  not present in database
Track 12  not present in database
Track 13  not present in database
Track 14  not present in database
Track 15  not present in database
None of the tracks are present in the AccurateRip database
End of status report

Индексная карта (non-compilant .cue)

Код:
REM DISCID D50C050F
REM COMMENT ExactAudioCopy v1.3
PERFORMER "Don Airey - K2"
TITLE "Tales of Triumph And Tragedy (Sail Music SPCD 0033)"
FILE "Don Airey - K2 - Tales of Triumph And Tragedy (Sail Music SPCD 0033).FLAC" WAVE
  TRACK 01 AUDIO
    TITLE "K2 Overture"
    INDEX 01 00:00:00
  TRACK 02 AUDIO
    TITLE "Sea Of Dreams (Part 1)"
    INDEX 01 03:15:74
  TRACK 03 AUDIO
    TITLE "Sea Of Dreams (Part 2)"
    INDEX 01 06:29:66
  TRACK 04 AUDIO
    TITLE "Voice Of The Mountain"
    INDEX 01 10:19:61
  TRACK 05 AUDIO
    TITLE "Song For Al (instrumental)"
    INDEX 01 11:47:66
  TRACK 06 AUDIO
    TITLE "Balti Lament"
    INDEX 01 15:59:59
  TRACK 07 AUDIO
    TITLE "Ascent To Camp"
    INDEX 01 17:19:24
  TRACK 08 AUDIO
    TITLE "Can't Make Up Your Mind"
    INDEX 01 20:44:71
  TRACK 09 AUDIO
    TITLE "Summit Push"
    INDEX 01 25:05:56
  TRACK 10 AUDIO
    TITLE "Close To The Sky"
    INDEX 01 26:25:39
  TRACK 11 AUDIO
    TITLE "Blues For J.T."
    INDEX 01 27:50:41
  TRACK 12 AUDIO
    TITLE "Julie (If You Leave Me)"
    INDEX 01 28:35:36
  TRACK 13 AUDIO
    TITLE "Death Zone/ Whiteout"
    INDEX 01 32:53:24
  TRACK 14 AUDIO
    TITLE "Song For Al (vocal)"
    INDEX 01 40:54:41
  TRACK 15 AUDIO
    TITLE "Take Me Home (bonus)"
    INDEX 00 46:02:44
    INDEX 01 46:08:53

2008 - A Light In The Sky (IROND CD 08-DD642, 2008 RU)

Лог создания рипа

Код:
Exact Audio Copy V1.0 beta 2 from 29. April 2011
EAC extraction logfile from 7. September 2011, 19:15
Don Airey / A Light In The Sky
Used drive  : HL-DT-STDVDRAM GT30N   Adapter: 0  ID: 1
Read mode               : Secure
Utilize accurate stream : Yes
Defeat audio cache      : Yes
Make use of C2 pointers : No
Read offset correction                      : 103
Overread into Lead-In and Lead-Out          : No
Fill up missing offset samples with silence : Yes
Delete leading and trailing silent blocks   : No
Null samples used in CRC calculations       : Yes
Used interface                              : Native Win32 interface for Win NT & 2000
Used output format : Internal WAV Routines
Sample format      : 44.100 Hz; 16 Bit; Stereo
TOC of the extracted CD
     Track |   Start  |  Length  | Start sector | End sector
    ---------------------------------------------------------
        1  |  0:00.00 |  1:05.53 |         0    |     4927
        2  |  1:05.53 |  5:40.23 |      4928    |    30450
        3  |  6:46.01 |  4:47.23 |     30451    |    51998
        4  | 11:33.24 |  3:40.43 |     51999    |    68541
        5  | 15:13.67 |  4:26.39 |     68542    |    88530
        6  | 19:40.31 |  5:05.38 |     88531    |   111443
        7  | 24:45.69 |  1:20.27 |    111444    |   117470
        8  | 26:06.21 |  0:55.25 |    117471    |   121620
        9  | 27:01.46 |  4:00.10 |    121621    |   139630
       10  | 31:01.56 |  0:58.50 |    139631    |   144030
       11  | 32:00.31 |  3:04.01 |    144031    |   157831
       12  | 35:04.32 |  3:02.06 |    157832    |   171487
       13  | 38:06.38 |  7:10.24 |    171488    |   203761
       14  | 45:16.62 |  3:04.59 |    203762    |   217620
       15  | 48:21.46 |  1:13.31 |    217621    |   223126
       16  | 49:35.02 |  6:47.52 |    223127    |   253703
       17  | 56:22.54 |  4:17.73 |    253704    |   273051
Range status and errors
Selected range
     Filename C:\Users\Lossless Galaxy Rip by a_warrior\Don Airey - A Light In The Sky.wav
     Peak level 99.8 %
     Extraction speed 3.3 X
     Range quality 99.9 %
     Test CRC 4BE90B93
     Copy CRC 4BE90B93
     Copy OK
No errors occurred
AccurateRip summary
Track  1  cannot be verified as accurate (confidence 11)  [88667077], AccurateRip returned [6760C989]  (AR v2)
Track  2  cannot be verified as accurate (confidence 11)  [CCB0FA1A], AccurateRip returned [1BF0F8C7]  (AR v2)
Track  3  cannot be verified as accurate (confidence 11)  [ED48BF96], AccurateRip returned [46861354]  (AR v2)
Track  4  cannot be verified as accurate (confidence 11)  [BF398CE1], AccurateRip returned [B37A0EE9]  (AR v2)
Track  5  cannot be verified as accurate (confidence 11)  [B0A882BF], AccurateRip returned [7E6B5FB9]  (AR v2)
Track  6  cannot be verified as accurate (confidence 11)  [DBB43855], AccurateRip returned [DEE208EE]  (AR v2)
Track  7  cannot be verified as accurate (confidence 11)  [6B7FCAD0], AccurateRip returned [3BD96ED9]  (AR v2)
Track  8  cannot be verified as accurate (confidence 11)  [C87D6F34], AccurateRip returned [00EC4467]  (AR v2)
Track  9  cannot be verified as accurate (confidence 11)  [853925AB], AccurateRip returned [AA78D2C0]  (AR v2)
Track 10  cannot be verified as accurate (confidence 11)  [DA2281F8], AccurateRip returned [4B68DDE0]  (AR v2)
Track 11  cannot be verified as accurate (confidence 11)  [065865CC], AccurateRip returned [4F149277]  (AR v2)
Track 12  cannot be verified as accurate (confidence 11)  [9CA25325], AccurateRip returned [96498243]  (AR v2)
Track 13  cannot be verified as accurate (confidence 11)  [BDDE29DB], AccurateRip returned [4A93E10A]  (AR v2)
Track 14  cannot be verified as accurate (confidence 11)  [04F0EFD5], AccurateRip returned [05368D50]  (AR v2)
Track 15  cannot be verified as accurate (confidence 11)  [36F0982A], AccurateRip returned [AAC41506]  (AR v2)
Track 16  cannot be verified as accurate (confidence 11)  [413083DD], AccurateRip returned [E189F207]  (AR v2)
Track 17  cannot be verified as accurate (confidence 11)  [3043E68F], AccurateRip returned [609A88EF]  (AR v2)
No tracks could be verified as accurate
You may have a different pressing from the one(s) in the database
End of status report

Индексная карта (non-compilant .cue)

Код:
REM GENRE Progressive Rock
REM DATE 2008
REM DISCID 070E3811
REM COMMENT ExactAudioCopy v1.0b2
PERFORMER "Don Airey"
TITLE "A Light In The Sky"
FILE "Don Airey - A Light In The Sky.flac" WAVE
  TRACK 01 AUDIO
    TITLE "Big Bang"
    INDEX 01 00:00:00
  TRACK 02 AUDIO
    TITLE "Ripples In The Fabric Of Time"
    INDEX 00 01:00:67
    INDEX 01 01:05:53
  TRACK 03 AUDIO
    TITLE "Shooting Star"
    INDEX 00 03:57:59
    INDEX 01 06:46:01
  TRACK 04 AUDIO
    TITLE "Space Troll Patrol"
    INDEX 01 11:33:24
  TRACK 05 AUDIO
    TITLE "Andromeda M31"
    INDEX 01 15:13:67
  TRACK 06 AUDIO
    TITLE "Endless Night"
    INDEX 01 19:40:31
  TRACK 07 AUDIO
    TITLE "Rocket To The Moon"
    INDEX 00 24:45:67
    INDEX 01 24:45:69
  TRACK 08 AUDIO
    TITLE "Lift Off"
    INDEX 01 26:06:21
  TRACK 09 AUDIO
    TITLE "Love You Too Much"
    INDEX 00 27:01:44
    INDEX 01 27:01:46
  TRACK 10 AUDIO
    TITLE "Cartwheel ESO 350-40"
    INDEX 00 31:01:52
    INDEX 01 31:01:56
  TRACK 11 AUDIO
    TITLE "Sombrero M104"
    INDEX 01 32:00:31
  TRACK 12 AUDIO
    TITLE "Into Orbit"
    INDEX 00 35:02:68
    INDEX 01 35:04:32
  TRACK 13 AUDIO
    TITLE "A Light In The Sky (Pt 2)"
    INDEX 01 38:06:38
  TRACK 14 AUDIO
    TITLE "Pale Blue Dot"
    INDEX 00 45:14:23
    INDEX 01 45:16:62
  TRACK 15 AUDIO
    TITLE "Metallicity"
    INDEX 00 48:21:45
    INDEX 01 48:21:46
  TRACK 16 AUDIO
    TITLE "Big Crunch"
    INDEX 01 49:35:02
  TRACK 17 AUDIO
    TITLE "Lost In The End Of Time"
    INDEX 01 56:22:54

2011 - All Out (Mascot Records MTR 7304 2, 2011 EU)

Лог создания рипа

Код:
Exact Audio Copy V1.1 from 23. June 2015
EAC extraction logfile from 5. June 2016, 23:04
Don Airey / All Out
Used drive  : HL-DT-STDVDRAM GH22NS70   Adapter: 1  ID: 1
Read mode               : Secure
Utilize accurate stream : Yes
Defeat audio cache      : Yes
Make use of C2 pointers : No
Read offset correction                      : 667
Overread into Lead-In and Lead-Out          : No
Fill up missing offset samples with silence : Yes
Delete leading and trailing silent blocks   : No
Null samples used in CRC calculations       : Yes
Used interface                              : Installed external ASPI interface
Used output format              : User Defined Encoder
Selected bitrate                : 128 kBit/s
Quality                         : High
Add ID3 tag                     : No
Command line compressor         : C:\Program Files (x86)\Exact Audio Copy\FLAC\FLAC.EXE
Additional command line options : -V -8 -T "Date=%year%" -T "Genre=%genre%" %source%
TOC of the extracted CD
     Track |   Start  |  Length  | Start sector | End sector
    ---------------------------------------------------------
        1  |  0:00.00 |  4:24.61 |         0    |    19860
        2  |  4:24.61 |  5:37.11 |     19861    |    45146
        3  | 10:01.72 |  5:00.56 |     45147    |    67702
        4  | 15:02.53 |  4:54.56 |     67703    |    89808
        5  | 19:57.34 |  3:42.37 |     89809    |   106495
        6  | 23:39.71 |  7:13.03 |    106496    |   138973
        7  | 30:52.74 |  5:13.73 |    138974    |   162521
        8  | 36:06.72 |  4:35.13 |    162522    |   183159
        9  | 40:42.10 |  4:26.19 |    183160    |   203128
       10  | 45:08.29 | 10:36.47 |    203129    |   250875
Range status and errors
Selected range
     Filename C:\Users\Grave-Gihar\Desktop\Don Airey\Don Airey - All Out.wav
     Peak level 96.5 %
     Extraction speed 1.9 X
     Range quality 100.0 %
     Test CRC 8C992886
     Copy CRC 8C992886
     Copy OK
No errors occurred
AccurateRip summary
Track  1  cannot be verified as accurate (confidence 9)  [4AEB8AE2], AccurateRip returned [6B84CB40]  (AR v2)
Track  2  cannot be verified as accurate (confidence 9)  [2C564A0A], AccurateRip returned [B923B567]  (AR v2)
Track  3  cannot be verified as accurate (confidence 9)  [011AA8AE], AccurateRip returned [539ECC67]  (AR v2)
Track  4  cannot be verified as accurate (confidence 9)  [65787242], AccurateRip returned [6581D7FD]  (AR v2)
Track  5  cannot be verified as accurate (confidence 9)  [A8A9FB8D], AccurateRip returned [E63EA1B1]  (AR v2)
Track  6  cannot be verified as accurate (confidence 9)  [233514F9], AccurateRip returned [7362E2C4]  (AR v2)
Track  7  cannot be verified as accurate (confidence 9)  [F1A3D1D3], AccurateRip returned [A1EC019C]  (AR v2)
Track  8  cannot be verified as accurate (confidence 9)  [8C22F713], AccurateRip returned [36289881]  (AR v2)
Track  9  cannot be verified as accurate (confidence 9)  [AF776FB2], AccurateRip returned [A740A44F]  (AR v2)
Track 10  cannot be verified as accurate (confidence 9)  [E30252DF], AccurateRip returned [5766121E]  (AR v2)
No tracks could be verified as accurate
You may have a different pressing from the one(s) in the database
End of status report

Индексная карта (non-compilant .cue)

Код:
REM DATE 2011
REM DISCID 7D0D110A
REM COMMENT ExactAudioCopy v1.1
PERFORMER "Don Airey"
TITLE "All Out"
FILE "Don Airey - All Out.flac" WAVE
  TRACK 01 AUDIO
    TITLE "The Way I Feel Inside"
    FLAGS DCP
    INDEX 01 00:00:00
  TRACK 02 AUDIO
    TITLE "Estancia"
    FLAGS DCP
    INDEX 01 04:24:61
  TRACK 03 AUDIO
    TITLE "People in Your Head"
    FLAGS DCP
    INDEX 01 10:01:72
  TRACK 04 AUDIO
    TITLE "B'cos"
    FLAGS DCP
    INDEX 01 15:02:53
  TRACK 05 AUDIO
    TITLE "Running from the Shadows"
    FLAGS DCP
    INDEX 01 19:57:34
  TRACK 06 AUDIO
    TITLE "Right Arm Overture"
    FLAGS DCP
    INDEX 00 23:38:43
    INDEX 01 23:39:71
  TRACK 07 AUDIO
    TITLE "Fire"
    FLAGS DCP
    INDEX 01 30:52:74
  TRACK 08 AUDIO
    TITLE "Long Road"
    FLAGS DCP
    INDEX 01 36:06:72
  TRACK 09 AUDIO
    TITLE "Wrath of Thor"
    FLAGS DCP
    INDEX 01 40:42:10
  TRACK 10 AUDIO
    TITLE "Tobruk"
    FLAGS DCP
    INDEX 01 45:08:29

2014 - Keyed Up (Mascot Label Group KICP-1689, 2014 Japan 1st press)

Лог создания рипа

Код:
Exact Audio Copy V1.2 from 12. August 2016
EAC extraction logfile from 2. March 2017, 13:12
Don Airey / Keyed Up [KICP-1689]
Used drive  : HL-DT-STBD-RE  BH10LS38   Adapter: 1  ID: 1
Read mode               : Secure
Utilize accurate stream : Yes
Defeat audio cache      : Yes
Make use of C2 pointers : No
Read offset correction                      : 667
Overread into Lead-In and Lead-Out          : No
Fill up missing offset samples with silence : Yes
Delete leading and trailing silent blocks   : No
Null samples used in CRC calculations       : Yes
Used interface                              : Installed external ASPI interface
Used output format              : User Defined Encoder
Selected bitrate                : 128 kBit/s
Quality                         : High
Add ID3 tag                     : No
Command line compressor         : C:\Program Files (x86)\Exact Audio Copy\wavpack-4.60.1\wavpack.exe
Additional command line options : -hm -w "Year=%year%" -w "Genre=%genre%" %source% %dest%
TOC of the extracted CD
     Track |   Start  |  Length  | Start sector | End sector
    ---------------------------------------------------------
        1  |  0:00.00 |  4:17.24 |         0    |    19298
        2  |  4:17.24 |  5:55.28 |     19299    |    45951
        3  | 10:12.52 |  5:14.42 |     45952    |    69543
        4  | 15:27.19 |  5:38.00 |     69544    |    94893
        5  | 21:05.19 |  5:12.37 |     94894    |   118330
        6  | 26:17.56 |  4:34.26 |    118331    |   138906
        7  | 30:52.07 |  0:36.40 |    138907    |   141646
        8  | 31:28.47 |  5:44.21 |    141647    |   167467
        9  | 37:12.68 |  7:03.30 |    167468    |   199222
       10  | 44:16.23 |  5:23.35 |    199223    |   223482
       11  | 49:39.58 |  4:22.29 |    223483    |   243161
       12  | 54:02.12 |  4:03.04 |    243162    |   261390
       13  | 58:05.16 |  4:27.51 |    261391    |   281466
       14  | 62:32.67 |  5:01.01 |    281467    |   304042
Range status and errors
Selected range
     Filename G:\Rips by Alder\Don Airey - Keyed Up [KICP-1689].wav
     Peak level 99.9 %
     Extraction speed 7.8 X
     Range quality 100.0 %
     Test CRC F9B999B8
     Copy CRC F9B999B8
     Copy OK
No errors occurred
AccurateRip summary
Track  1  accurately ripped (confidence 2)  [1D2EE82E]  (AR v2)
Track  2  accurately ripped (confidence 2)  [87E87FFE]  (AR v2)
Track  3  accurately ripped (confidence 2)  [A45F8269]  (AR v2)
Track  4  accurately ripped (confidence 2)  [66D463F4]  (AR v2)
Track  5  accurately ripped (confidence 2)  [AF656273]  (AR v2)
Track  6  accurately ripped (confidence 2)  [22C30436]  (AR v2)
Track  7  accurately ripped (confidence 2)  [B05E6A24]  (AR v2)
Track  8  accurately ripped (confidence 2)  [ED2A8434]  (AR v2)
Track  9  accurately ripped (confidence 2)  [8896EA2A]  (AR v2)
Track 10  accurately ripped (confidence 2)  [3433A133]  (AR v2)
Track 11  accurately ripped (confidence 2)  [A8E463B5]  (AR v2)
Track 12  accurately ripped (confidence 2)  [784C769F]  (AR v2)
Track 13  accurately ripped (confidence 2)  [78A6E287]  (AR v2)
Track 14  accurately ripped (confidence 2)  [FE256A95]  (AR v2)
All tracks accurately ripped
End of status report
---- CUETools DB Plugin V2.1.6
[CTDB TOCID: 9ErF8KPD1Wu5H0pCnRoTxSB2aCg-] found
Submit result: 9ErF8KPD1Wu5H0pCnRoTxSB2aCg- has been confirmed
Track | CTDB Status
  1   | (4/4) Accurately ripped
  2   | (4/4) Accurately ripped
  3   | (4/4) Accurately ripped
  4   | (4/4) Accurately ripped
  5   | (4/4) Accurately ripped
  6   | (4/4) Accurately ripped
  7   | (4/4) Accurately ripped
  8   | (4/4) Accurately ripped
  9   | (4/4) Accurately ripped
10   | (4/4) Accurately ripped
11   | (4/4) Accurately ripped
12   | (4/4) Accurately ripped
13   | (4/4) Accurately ripped
14   | (4/4) Accurately ripped

Индексная карта (non-compilant .cue)

Код:
REM GENRE Rock
REM DATE 2014
REM DISCID E50FD50E
REM COMMENT ExactAudioCopy v1.2
CATALOG '4 988003 452308'
PERFORMER "Don Airey"
TITLE "Keyed Up [KICP-1689]"
FILE "Don Airey - Keyed Up [KICP-1689].flac" WAVE
  TRACK 01 AUDIO
    TITLE "3 In The Morning"
    INDEX 01 00:00:00
  TRACK 02 AUDIO
    TITLE "Beat The Retreat"
    INDEX 01 04:17:24
  TRACK 03 AUDIO
    TITLE "Blue Rondo A La Turk"
    INDEX 01 10:12:52
  TRACK 04 AUDIO
    TITLE "Solomons Song"
    INDEX 00 15:26:65
    INDEX 01 15:27:19
  TRACK 05 AUDIO
    TITLE "Claire D'Loon"
    INDEX 01 21:05:19
  TRACK 06 AUDIO
    TITLE "Flight Of Inspiration"
    INDEX 01 26:17:56
  TRACK 07 AUDIO
    TITLE "Inside The Godbox"
    INDEX 01 30:52:07
  TRACK 08 AUDIO
    TITLE "Difficult To Cure 2013"
    INDEX 01 31:28:47
  TRACK 09 AUDIO
    TITLE "Mini Suite"
    INDEX 01 37:12:68
  TRACK 10 AUDIO
    TITLE "Adagio"
    INDEX 01 44:16:23
  TRACK 11 AUDIO
    TITLE "Grace"
    INDEX 01 49:39:58
  TRACK 12 AUDIO
    TITLE "Love You Too Much (Bonus Track)"
    INDEX 00 53:57:32
    INDEX 01 54:02:12
  TRACK 13 AUDIO
    TITLE "The Way I Feel Inside (Bonus Track)"
    INDEX 00 58:02:36
    INDEX 01 58:05:16
  TRACK 14 AUDIO
    TITLE "People In Your Head (Bonus Track)"
    INDEX 00 62:30:12
    INDEX 01 62:32:67
--

_________________
Разница между теорией и практикой в том, что теоретически разницы между теорией и практикой нет, а на практике она есть.
[Профиль] [ЛС]
Показать сообщения:    

Текущее время: Сегодня 19:59

Часовой пояс: GMT + 3



Вы не можете начинать темы
Вы не можете отвечать на сообщения
Вы не можете редактировать свои сообщения
Вы не можете удалять свои сообщения
Вы не можете голосовать в опросах
Вы не можете прикреплять файлы к сообщениям
Вы не можете скачивать файлы