Золотые дни идет свободное скачивание без начисления Download
 

Офлайн

sergej644

Стаж:
5 лет 11 месяцев
Сообщений:
892

-Rated X - Rated X (Japanese Edition)--
Год издания: 2014
Страна: USA
Жанр: Hard Rock
Продолжительность: 01:06:05-Лейбл издания: Seven Seas
Страна-выпуска диска: Japan
Номер по каталогу: KICP 1691-Формат: FLAC
Битрейт аудио: Lossless
Тип рипа: image +.cue
Наличие сканов в содержимом раздачи: да
-

Трэклист


01. Get Back My Crown (4:16)
02. This Is Who I Am (4:49)
03. Fire And Ice (4:21)
04. I Don't Cry No More (4:22)
05. Lhasa (7:15)
06. Devil In Disguise (4:20)
07. You Are The Music (5:02)
08. Peace Of Mind (5:49)
09. Maybe Tonight (5:05)
10. On The Way To Paradise (4:03)
11. Our Love Is Not Over (5:39)
12. Stranger In Us All (5:46)
13. Our Love Is Not Over (Acoustic Version) (5:17)
-

Лог создания рипа

Код:
Exact Audio Copy V1.0 beta 3 from 29. August 2011
EAC extraction logfile from 13. November 2014, 20:11
Rated X / Rated X
Used drive  : SlimtypeDVD A  DS8A5SH   Adapter: 0  ID: 1
Read mode               : Secure
Utilize accurate stream : Yes
Defeat audio cache      : Yes
Make use of C2 pointers : No
Read offset correction                      : 6
Overread into Lead-In and Lead-Out          : No
Fill up missing offset samples with silence : Yes
Delete leading and trailing silent blocks   : No
Null samples used in CRC calculations       : Yes
Used interface                              : Native Win32 interface for Win NT & 2000
Used output format              : User Defined Encoder
Selected bitrate                : 320 kBit/s
Quality                         : High
Add ID3 tag                     : No
Command line compressor         : C:\Program Files (x86)\Exact Audio Copy\Flac\flac.exe
Additional command line options : -V -8 -T "Date=%year%" -T "Genre=%genre%" %source%
TOC of the extracted CD
     Track |   Start  |  Length  | Start sector | End sector
    ---------------------------------------------------------
        1  |  0:00.00 |  4:15.47 |         0    |    19171
        2  |  4:15.47 |  4:49.05 |     19172    |    40851
        3  |  9:04.52 |  4:20.62 |     40852    |    60413
        4  | 13:25.39 |  4:22.24 |     60414    |    80087
        5  | 17:47.63 |  7:14.53 |     80088    |   112690
        6  | 25:02.41 |  4:20.06 |    112691    |   132196
        7  | 29:22.47 |  5:02.33 |    132197    |   154879
        8  | 34:25.05 |  5:49.19 |    154880    |   181073
        9  | 40:14.24 |  5:05.31 |    181074    |   203979
       10  | 45:19.55 |  4:03.00 |    203980    |   222204
       11  | 49:22.55 |  5:38.63 |    222205    |   247617
       12  | 55:01.43 |  5:46.21 |    247618    |   273588
       13  | 60:47.64 |  5:17.23 |    273589    |   297386
Range status and errors
Selected range
     Filename D:\My Music\Rated X - 2014 Rated X\Rated X - Rated X.wav
     Peak level 98.8 %
     Extraction speed 5.0 X
     Range quality 100.0 %
     Test CRC 07471839
     Copy CRC 07471839
     Copy OK
No errors occurred
AccurateRip summary
Track  1  not present in database
Track  2  not present in database
Track  3  not present in database
Track  4  not present in database
Track  5  not present in database
Track  6  not present in database
Track  7  not present in database
Track  8  not present in database
Track  9  not present in database
Track 10  not present in database
Track 11  not present in database
Track 12  not present in database
Track 13  not present in database
None of the tracks are present in the AccurateRip database
End of status report

Индексная карта (non-compilant .cue)

Код:
REM GENRE "Hard Rock"
REM DATE 2014
REM DISCID B60F7D0D
REM COMMENT "ExactAudioCopy v1.0b3"
PERFORMER "Rated X"
TITLE "Rated X"
FILE "Rated X - Rated X.flac" WAVE
  TRACK 01 AUDIO
    TITLE "Get Back My Crown"
    PERFORMER "Rated X"
    ISRC ITG271400368
    INDEX 01 00:00:00
  TRACK 02 AUDIO
    TITLE "This Is Who I Am"
    PERFORMER "Rated X"
    ISRC ITG271400369
    INDEX 01 04:15:47
  TRACK 03 AUDIO
    TITLE "Fire And Ice"
    PERFORMER "Rated X"
    ISRC ITG271400370
    INDEX 01 09:04:52
  TRACK 04 AUDIO
    TITLE "I Don't Cry No More"
    PERFORMER "Rated X"
    ISRC ITG271400371
    INDEX 01 13:25:39
  TRACK 05 AUDIO
    TITLE "Lhasa"
    PERFORMER "Rated X"
    ISRC ITG271400372
    INDEX 01 17:47:63
  TRACK 06 AUDIO
    TITLE "Devil In Disguise"
    PERFORMER "Rated X"
    ISRC ITG271400373
    INDEX 01 25:02:41
  TRACK 07 AUDIO
    TITLE "You Are The Music"
    PERFORMER "Rated X"
    ISRC ITG271400374
    INDEX 01 29:22:47
  TRACK 08 AUDIO
    TITLE "Peace Of Mind"
    PERFORMER "Rated X"
    ISRC ITG271400375
    INDEX 01 34:25:05
  TRACK 09 AUDIO
    TITLE "Maybe Tonight"
    PERFORMER "Rated X"
    ISRC ITG271400376
    INDEX 01 40:14:24
  TRACK 10 AUDIO
    TITLE "On The Way To Paradise"
    PERFORMER "Rated X"
    ISRC ITG271400377
    INDEX 01 45:19:55
  TRACK 11 AUDIO
    TITLE "Our Love Is Not Over"
    PERFORMER "Rated X"
    ISRC ITG271400378
    INDEX 01 49:22:55
  TRACK 12 AUDIO
    TITLE "Stranger In Us All"
    PERFORMER "Rated X"
    ISRC ITG271400379
    INDEX 01 55:01:43
  TRACK 13 AUDIO
    TITLE "Our Love Is Not Over (Acoustic Version)"
    PERFORMER "Rated X"
    ISRC ITG271400380
    INDEX 01 60:47:64
-

Состав:

Joe Lynn Turner (Rainbow): vocals
Carmine Appice: drums
Tony Franklin: bass
Karl Cochran: guitars except as below.
--

_________________
Разница между теорией и практикой в том, что теоретически разницы между теорией и практикой нет, а на практике она есть.
[Профиль] [ЛС]
Показать сообщения:    

Текущее время: Сегодня 02:15

Часовой пояс: GMT + 3



Вы не можете начинать темы
Вы не можете отвечать на сообщения
Вы не можете редактировать свои сообщения
Вы не можете удалять свои сообщения
Вы не можете голосовать в опросах
Вы не можете прикреплять файлы к сообщениям
Вы не можете скачивать файлы