Золотые дни идет свободное скачивание без начисления Download
 

Офлайн

sergej644

Стаж:
5 лет 1 месяц
Сообщений:
818

-Hansen & Friends - Thank You Wacken (Japanese Edition)--
Год издания: 2017
Страна: Germany
Жанр: Power Metal
Продолжительность: 01:22:50-Лейбл издания: Ward Records, Inc.
Страна-выпуска диска: Japan
Номер по каталогу: GQBS - 90300-1-Формат: FLAC
Битрейт аудио: Lossless
Тип рипа: image +.cue
Наличие сканов в содержимом раздачи: да
-

Трэклист


01. Born Free(4:31)
02. Ride The Sky(7:49)
03. Contract Song(6:39)
04. Victim Of Fate7:08)
05. Enemies Of Fun(10:19)
06. Fire And Ice(7:58)
07. Burning Bridges(4:35)
08. Follow The Sun(5:09)
09. I Want Out(5:49)
10. Future World(5:22)
11. All Or Nothing(5:56)
12. Save Us(5:33)
13. Stranger In Time (feat. Frank Beck) (Bonus Track)(6:03)
-

Лог создания рипа

Код:
Exact Audio Copy V1.3 from 2. September 2016
EAC extraction logfile from 21. June 2017, 1:56
Hansen & Friends / Thank You Wacken (Japan)
Used drive  : ATAPI   iHAS122   W   Adapter: 2  ID: 0
Read mode               : Secure
Utilize accurate stream : Yes
Defeat audio cache      : Yes
Make use of C2 pointers : No
Read offset correction                      : 48
Overread into Lead-In and Lead-Out          : No
Fill up missing offset samples with silence : Yes
Delete leading and trailing silent blocks   : No
Null samples used in CRC calculations       : Yes
Used interface                              : Installed external ASPI interface
Used output format              : User Defined Encoder
Selected bitrate                : 1024 kBit/s
Quality                         : High
Add ID3 tag                     : No
Command line compressor         : C:\Program Files\FLAC\flac.exe
Additional command line options : -V -8 -T "Date=%year%" -T "Genre=%genre%" -T"COMMENT=Ripped by  Ilijan - ilko" -8 -V %source%
TOC of the extracted CD
     Track |   Start  |  Length  | Start sector | End sector
    ---------------------------------------------------------
        1  |  0:00.00 |  4:30.46 |         0    |    20295
        2  |  4:30.46 |  7:48.67 |     20296    |    55462
        3  | 12:19.38 |  6:39.14 |     55463    |    85401
        4  | 18:58.52 |  7:07.43 |     85402    |   117469
        5  | 26:06.20 | 10:19.03 |    117470    |   163897
        6  | 36:25.23 |  7:58.29 |    163898    |   199776
        7  | 44:23.52 |  4:35.23 |    199777    |   220424
        8  | 48:59.00 |  5:08.67 |    220425    |   243591
        9  | 54:07.67 |  5:48.56 |    243592    |   269747
       10  | 59:56.48 |  5:21.57 |    269748    |   293879
       11  | 65:18.30 |  5:55.63 |    293880    |   320567
       12  | 71:14.18 |  5:32.55 |    320568    |   345522
       13  | 76:46.73 |  6:03.15 |    345523    |   372762
Range status and errors
Selected range
     Filename D:\ilko\Hansen & Friends - Thank You Wacken (Japan).wav
     Peak level 99.7 %
     Extraction speed 4.8 X
     Range quality 100.0 %
     Test CRC 3CA3B1DA
     Copy CRC 3CA3B1DA
     Copy OK
No errors occurred
AccurateRip summary
Track  1  not present in database
Track  2  not present in database
Track  3  not present in database
Track  4  not present in database
Track  5  not present in database
Track  6  not present in database
Track  7  not present in database
Track  8  not present in database
Track  9  not present in database
Track 10  not present in database
Track 11  not present in database
Track 12  not present in database
Track 13  not present in database
None of the tracks are present in the AccurateRip database
End of status report
---- CUETools DB Plugin V2.1.6
[CTDB TOCID: 2LbiEB0nSEc15scBK21OvEBEhio-] found
Submit result: 2LbiEB0nSEc15scBK21OvEBEhio- has been confirmed
Track | CTDB Status
  1   | (1/1) Accurately ripped
  2   | (1/1) Accurately ripped
  3   | (1/1) Accurately ripped
  4   | (1/1) Accurately ripped
  5   | (1/1) Accurately ripped
  6   | (1/1) Accurately ripped
  7   | (1/1) Accurately ripped
  8   | (1/1) Accurately ripped
  9   | (1/1) Accurately ripped
10   | (1/1) Accurately ripped
11   | (1/1) Accurately ripped
12   | (1/1) Accurately ripped
13   | (1/1) Accurately ripped

Индексная карта (non-compilant .cue)

Код:
REM GENRE "Power Metal"
REM DATE 2017
REM DISCID C6136A0D
REM COMMENT "ExactAudioCopy v1.3"
PERFORMER "Hansen & Friends"
TITLE "Thank You Wacken (Japan)"
FILE "Hansen & Friends - Thank You Wacken (Japan).flac" WAVE
  TRACK 01 AUDIO
    TITLE "Born Free"
    PERFORMER "Hansen & Friends"
    INDEX 01 00:00:00
  TRACK 02 AUDIO
    TITLE "Ride The Sky"
    PERFORMER "Hansen & Friends"
    INDEX 01 04:30:46
  TRACK 03 AUDIO
    TITLE "Contract Song"
    PERFORMER "Hansen & Friends"
    INDEX 01 12:19:38
  TRACK 04 AUDIO
    TITLE "Victim Of Fate"
    PERFORMER "Hansen & Friends"
    INDEX 01 18:58:52
  TRACK 05 AUDIO
    TITLE "Enemies Of Fun"
    PERFORMER "Hansen & Friends"
    INDEX 01 26:06:20
  TRACK 06 AUDIO
    TITLE "Fire And Ice"
    PERFORMER "Hansen & Friends"
    INDEX 01 36:25:23
  TRACK 07 AUDIO
    TITLE "Burning Bridges"
    PERFORMER "Hansen & Friends"
    INDEX 01 44:23:52
  TRACK 08 AUDIO
    TITLE "Follow The Sun"
    PERFORMER "Hansen & Friends"
    INDEX 01 48:59:00
  TRACK 09 AUDIO
    TITLE "I Want Out"
    PERFORMER "Hansen & Friends"
    INDEX 01 54:07:67
  TRACK 10 AUDIO
    TITLE "Future World"
    PERFORMER "Hansen & Friends"
    INDEX 01 59:56:48
  TRACK 11 AUDIO
    TITLE "All Or Nothing"
    PERFORMER "Hansen & Friends"
    INDEX 01 65:18:30
  TRACK 12 AUDIO
    TITLE "Save Us"
    PERFORMER "Hansen & Friends"
    INDEX 01 71:14:18
  TRACK 13 AUDIO
    TITLE "Stranger In Time (feat. Frank Beck) (Bonus Track)"
    PERFORMER "Hansen & Friends"
    INDEX 01 76:46:73
--

_________________
Разница между теорией и практикой в том, что теоретически разницы между теорией и практикой нет, а на практике она есть.
[Профиль] [ЛС]
Показать сообщения:    

Текущее время: Сегодня 23:20

Часовой пояс: GMT + 3



Вы не можете начинать темы
Вы не можете отвечать на сообщения
Вы не можете редактировать свои сообщения
Вы не можете удалять свои сообщения
Вы не можете голосовать в опросах
Вы не можете прикреплять файлы к сообщениям
Вы не можете скачивать файлы