Золотые дни идет свободное скачивание без начисления Download
 

Офлайн

sergej644

Стаж:
5 лет 4 месяца
Сообщений:
853

---
Год издания: 2017
Страна: Spain / United States / Sweden
Жанр: Heavy Metal
Продолжительность: 01:03:41-Лейбл издания: Ward Records, Inc./GQCS-90343
Страна-выпуска диска: Japan
Номер по каталогу: GOCS-90343-Формат: FLAC
Битрейт аудио: Lossless
Тип рипа: image +.cue
Наличие сканов в содержимом раздачи: да
-

Трэклист


01. End Of The Road (4:32)
02. Ferryman (4:47)
03. Fool You All (3:42)
04. Still Standing Up (5:20)
05. Cry Wolf (4:56)
06. One Heart (6:10)
07. The Darkest Hour (4:29)
08. How The Story Ends (4:55)
09. Enter Your Dream (4:19)
10. Eyes On The Sky (5:13)
11. Eternal Night (4:53)
12. Welcome To My Show (4:15)
13. One Heart (Acoustic Version) (Bonus Track) (6:08)
-

Лог создания рипа

Код:
Exact Audio Copy V1.3 from 2. September 2016
EAC extraction logfile from 13. June 2017, 13:26
The Ferrymen / The Ferrymen (Japan)
Used drive  : MATSHITADVD-RAM UJ8G6   Adapter: 1  ID: 0
Read mode               : Secure
Utilize accurate stream : Yes
Defeat audio cache      : Yes
Make use of C2 pointers : No
Read offset correction                      : 103
Overread into Lead-In and Lead-Out          : No
Fill up missing offset samples with silence : Yes
Delete leading and trailing silent blocks   : No
Null samples used in CRC calculations       : Yes
Used interface                              : Native Win32 interface for Win NT & 2000
Used output format              : User Defined Encoder
Selected bitrate                : 1024 kBit/s
Quality                         : High
Add ID3 tag                     : No
Command line compressor         : C:\Program Files (x86)\Exact Audio Copy\FLAC\FLAC.EXE
Additional command line options : -V -8 -T "Date=%year%" -T"Genre=%genre%" -T"COMMENT=Ripped by Ilijan - ilko" -8 -V %source%
TOC of the extracted CD
     Track |   Start  |  Length  | Start sector | End sector
    ---------------------------------------------------------
        1  |  0:00.00 |  4:31.65 |         0    |    20389
        2  |  4:31.65 |  4:47.37 |     20390    |    41951
        3  |  9:19.27 |  3:42.10 |     41952    |    58611
        4  | 13:01.37 |  5:20.28 |     58612    |    82639
        5  | 18:21.65 |  4:56.13 |     82640    |   104852
        6  | 23:18.03 |  6:10.00 |    104853    |   132602
        7  | 29:28.03 |  4:29.23 |    132603    |   152800
        8  | 33:57.26 |  4:55.13 |    152801    |   174938
        9  | 38:52.39 |  4:19.26 |    174939    |   194389
       10  | 43:11.65 |  5:13.34 |    194390    |   217898
       11  | 48:25.24 |  4:52.47 |    217899    |   239845
       12  | 53:17.71 |  4:15.16 |    239846    |   258986
       13  | 57:33.12 |  6:08.00 |    258987    |   286586
Range status and errors
Selected range
     Filename D:\ilko\The Ferrymen - The Ferrymen (Japan).wav
     Peak level 99.9 %
     Extraction speed 4.3 X
     Range quality 100.0 %
     Test CRC BADA21DC
     Copy CRC BADA21DC
     Copy OK
No errors occurred
AccurateRip summary
Track  1  not present in database
Track  2  not present in database
Track  3  not present in database
Track  4  not present in database
Track  5  not present in database
Track  6  not present in database
Track  7  not present in database
Track  8  not present in database
Track  9  not present in database
Track 10  not present in database
Track 11  not present in database
Track 12  not present in database
Track 13  not present in database
None of the tracks are present in the AccurateRip database
End of status report
---- CUETools DB Plugin V2.1.6
[CTDB TOCID: mvhQFzBeOX4PUQTgXA0mxnJ0bm0-] found
Submit result: mvhQFzBeOX4PUQTgXA0mxnJ0bm0- has been confirmed
Track | CTDB Status
  1   | (4/4) Accurately ripped
  2   | (4/4) Accurately ripped
  3   | (4/4) Accurately ripped
  4   | (4/4) Accurately ripped
  5   | (4/4) Accurately ripped
  6   | (4/4) Accurately ripped
  7   | (4/4) Accurately ripped
  8   | (4/4) Accurately ripped
  9   | (4/4) Accurately ripped
10   | (4/4) Accurately ripped
11   | (4/4) Accurately ripped
12   | (4/4) Accurately ripped
13   | (4/4) Accurately ripped

Индексная карта (non-compilant .cue)

Код:
REM GENRE "Heavy/Power Metal"
REM DATE 2017
REM DISCID AB0EED0D
REM COMMENT "ExactAudioCopy v1.3"
PERFORMER "The Ferrymen"
TITLE "The Ferrymen (Japan)"
FILE "The Ferrymen - The Ferrymen (Japan).flac" WAVE
  TRACK 01 AUDIO
    TITLE "End Of The Road"
    PERFORMER "The Ferrymen"
    INDEX 01 00:00:00
  TRACK 02 AUDIO
    TITLE "Ferryman"
    PERFORMER "The Ferrymen"
    INDEX 01 04:31:65
  TRACK 03 AUDIO
    TITLE "Fool You All"
    PERFORMER "The Ferrymen"
    INDEX 01 09:19:27
  TRACK 04 AUDIO
    TITLE "Still Standing Up"
    PERFORMER "The Ferrymen"
    INDEX 01 13:01:37
  TRACK 05 AUDIO
    TITLE "Cry Wolf"
    PERFORMER "The Ferrymen"
    INDEX 01 18:21:65
  TRACK 06 AUDIO
    TITLE "One Heart"
    PERFORMER "The Ferrymen"
    INDEX 01 23:18:03
  TRACK 07 AUDIO
    TITLE "The Darkest Hour"
    PERFORMER "The Ferrymen"
    INDEX 01 29:28:03
  TRACK 08 AUDIO
    TITLE "How The Story Ends"
    PERFORMER "The Ferrymen"
    INDEX 01 33:57:26
  TRACK 09 AUDIO
    TITLE "Enter Your Dream"
    PERFORMER "The Ferrymen"
    INDEX 01 38:52:39
  TRACK 10 AUDIO
    TITLE "Eyes On The Sky"
    PERFORMER "The Ferrymen"
    INDEX 01 43:11:65
  TRACK 11 AUDIO
    TITLE "Eternal Night"
    PERFORMER "The Ferrymen"
    INDEX 01 48:25:24
  TRACK 12 AUDIO
    TITLE "Welcome To My Show"
    PERFORMER "The Ferrymen"
    INDEX 01 53:17:71
  TRACK 13 AUDIO
    TITLE "One Heart (Acoustic Version) (Bonus Track)"
    PERFORMER "The Ferrymen"
    INDEX 01 57:33:12

Состав группы:

-Ronnie Romero - Vocals
Magnus Karlsson - Guitars, Bass, Keyboards
Mike Terrana - Drums
--

_________________
Разница между теорией и практикой в том, что теоретически разницы между теорией и практикой нет, а на практике она есть.
[Профиль] [ЛС]

Онлайн

andrew6572

Стаж:
5 лет 7 месяцев
Сообщений:
5871

sergej644, Привет, Сергей! Вышел на "тропу раздачи"? Спасибо!

_________________
"Любая война – всего лишь трусливое бегство от проблем мирного времени." Томас Манн.
[Профиль] [ЛС]

Офлайн

sergej644

Стаж:
5 лет 4 месяца
Сообщений:
853

235672sergej644, Привет, Сергей! Вышел на "тропу раздачи"? Спасибо!
Привет!!! прилетел домой с рейса.теперь можно отдохнуть и порелизить ar

_________________
Разница между теорией и практикой в том, что теоретически разницы между теорией и практикой нет, а на практике она есть.
[Профиль] [ЛС]
Показать сообщения:    

Текущее время: Сегодня 17:42

Часовой пояс: GMT + 3



Вы не можете начинать темы
Вы не можете отвечать на сообщения
Вы не можете редактировать свои сообщения
Вы не можете удалять свои сообщения
Вы не можете голосовать в опросах
Вы не можете прикреплять файлы к сообщениям
Вы не можете скачивать файлы