Золотые дни идет свободное скачивание без начисления Download
 

Офлайн

sergej644

Стаж:
5 лет 1 месяц
Сообщений:
818

-Heaven & Hell (ex-Black Sabbath) - Discography (10CD)--
Год издания: 2007 - 2010
Страна: USA
Жанр: Heavy Metal
Продолжительность: 10:17:44- Страна-выпуска диска: - Формат: FLAC
Битрейт аудио: Lossless
Тип рипа: image +.cue
Наличие сканов в содержимом раздачи: да
-

Трэклист

2007 - Live From Radio City Music Hall

2007 - Live From Radio City Music Hall (2CD)

CD 1 | 00:59:45


Лейбл издания: Rhino
Страна-выпуска диска: Germany
Номер по каталогу: SPV 98102

01.E5150 - After All (The Dead)(8:31)
02.The Mob Rules(4:05)
03.Children Of The Sea(6:53)
04.Lady Evil(5:20)
05.I(6:27)
06.The Sign Of The Southern Cross(9:07)
07.Voodoo(7:42)
08.The Devil Cried(11:40)

CD 2 | 00:56:19


Лейбл издания: Rhino
Страна-выпуска диска: Germany
Номер по каталогу: SPV 98102

01.Computer God(6:41)
02.Falling Off The Edge Of The World(5:45)
03.Shadow Of The Wind(6:06)
04.Die Young(7:44)
05.Heaven And Hell(15:16)
06.Lonely Is The Word(6:49)
07.Neon Knights(7:58)

2007 - Live From Radio City Music Hall (2CD)

CD 1 | 00:59:45


Лейбл издания: Victor
Страна-выпуска диска: Japan
Номер по каталогу: VICP-63924~5

01.E5150 \ After All (The Dead)(8:31)
02.The Mob Rules(4:05)
03.Children Of The Sea(6:53)
04.Lady Evil(5:20)
05.I(6:27)
06.The Sign Of The Southern Cross(9:07)
07.Voodoo(7:42)
08.The Devil Cried(11:40)

CD 2 | 00:56:20


Лейбл издания: Victor
Страна-выпуска диска: Japan
Номер по каталогу: VICP-63924~5

01.Computer God(6:42)
02.Falling Off The Edge Of The World(5:45)
03.Shadow Of The Wind(6:06)
04.Die Young(7:44)
05.Heaven And Hell(15:16)
06.Lonely Is The Word(6:49)
07.Neon Knights(7:59)

2009 - The Devil You Know

2009 - The Devil You Know | 00:54:03


Лейбл издания: Roadrunner
Страна-выпуска диска: Germany
Номер по каталогу: RR 7853-8

01.Atom And Evil(5:13)
02.Fear(4:46)
03.Bible Black(6:27)
04.Double The Pain(5:24)
05.Rock And Roll Angel(6:02)
06.The Turn Of The Screw(5:00)
07.Eating The Cannibals(3:35)
08.Follow The Tears(6:10)
09.Neverwhere(4:33)
10.Breaking Into Heaven(6:53)

2009 - The Devil You Know | 00:54:04


Лейбл издания: Victor
Страна-выпуска диска: Japan
Номер по каталогу: VICP-70106

01.Atom and Evil(5:14)
02.Fear(4:46)
03.Bible Black(6:27)
04.Double the Pain(5:24)
05.Rock and Roll Angel(6:02)
06.The Turn of the Screw(5:00)
07.Eating the Cannibals(3:35)
08.Follow the Tears(6:10)
09.Neverwhere(4:33)
10.Breaking into Heaven(6:54)

2009 - The Devil You Know | 00:54:03


Лейбл издания: Rhino
Страна-выпуска диска: USA
Номер по каталогу: R2 518862

01.Atom and Evil(5:13)
02.Fear(4:46)
03.Bible Black(6:27)
04.Double the Pain(5:23)
05.Rock and Roll Angel(6:03)
06.The Turn of the Screw(5:00)
07.Eating the Cannibals(3:35)
08.Follow the Tears(6:10)
09.Neverwhere(4:33)
10.Breaking into Heaven(6:54)

2010 - Neon Nights Live in Europe

2010 - Neon Nights Live at Wacken - 30 Years of Heaven & Hell (DE; Wacken Festival; 30.7.2009) | 01:14:28


Лейбл издания: Armoury
Страна-выпуска диска: Germany
Номер по каталогу: ARMCD531

01.The Mob Rules(3:47)
02.Children Of The Sea(6:31)
03.I(6:17)
04.Bible Black(6:30)
05.Time Machine(4:40)
06.Fear(4:36)
07.Falling Off The Edge Of The World(5:40)
08.Follow The Tears(6:12)
09.Die Young(6:42)
10.Heaven And Hell(17:49)
11.Neon Knights(5:45)

2010 - Neon Nights Live at Wacken | 01:14:28


Лейбл издания: Ward
Страна-выпуска диска: Japan
Номер по каталогу: VQCD-10207

01.Mob Rules(3:47)
02.Children Of The Sea(6:31)
03.I(6:17)
04.Bible Black(6:30)
05.Time Machine(4:40)
06.Fear(4:36)
07.Falling Off The Edge Of The World(5:40)
08.Follow The Tears(6:12)
09.Die Young(6:42)
10.Heaven And Hell(17:49)
11.Neon Knights(5:45)

2010 - Neon Nights Live in Europe | 01:14:28


Лейбл издания: Armoury
Страна-выпуска диска: USA
Номер по каталогу: ARM250462

01.Mob Rules(3:47)
02.Children Of The Sea(6:31)
03.I(6:17)
04.Bible Black(6:30)
05.Time Machine(4:40)
06.Fear(4:36)
07.Falling Off The Edge Of The World(5:40)
08.Follow The Tears(6:12)
09.Die Young(6:42)
10.Heaven And Hell(17:49)
11.Neon Knights(5:45)
-

Дополнительная информация:

Heaven & Hellсупергруппа, созданная бывшими музыкантами Black Sabbath — Ронни Джеймсом Дио, Винни Апписи и двумя нынешними — Тони Айомми и Гизером Батлером в 2006-м году. По сути группа является составом Black Sabbath, поскольку вышеупомянутые музыканты уже играли в таком составе в 1980—1982 и 1991—1992 годах (за исключением клавишника Джеффа Николса, вместо него клавишные партии исполнял Скотт Уоррен).
Группа была образована после выхода сборника Black Sabbath: The Dio Years, когда Дио, Айомми и Батлер решили отыграть тур в его поддержку. Это стало возможным благодаря тому, что у Оззи Осборна был намечен сольный тур на это время. Место барабанщика было предложено Билу Уорду, но тот отказался. Тогда барабанщиком становится Винни Апписи, которому уже доводилось подменять Уорда. Чтобы не обострять отношения с Оззи Осборном, Тони Айомми (владелец имени Black Sabbath) решает провести гастроли под вывеской Heaven & Hell. (по названию первого альбома Black Sabbath, записанного с Дио Heaven and Hell).

Состав:

Ronnie James Dio – lead vocals, keyboards (2006–2010)
Tony Iommi – guitar (2006–2010)
Geezer Butler – bass (2006–2010)
Vinny Appice – drums, percussion (2006–2010)
Live members
Scott Warren – keyboards (offstage) (2007–2010)
Glenn Hughes – lead vocals (2010, Ronnie James Dio tribute show only)
Jшrn Lande – lead vocals (2010, Ronnie James Dio tribute show only)
--

_________________
Разница между теорией и практикой в том, что теоретически разницы между теорией и практикой нет, а на практике она есть.
[Профиль] [ЛС]

Офлайн

sergej644

Стаж:
5 лет 1 месяц
Сообщений:
818

Лог создания рипа

2007 - Live From Radio City Music Hall

2007 - Live From Radio City Music Hall (2CD)

CD 1

Код:
Exact Audio Copy V0.99 prebeta 5 from 4. May 2009
EAC extraction logfile from 30. October 2011, 13:06
Heaven & Hell / Live From Radio City Music Hall (Disc 1)
Used drive  : HL-DT-STDVDRAM GSA-T20N   Adapter: 1  ID: 0
Read mode               : Secure
Utilize accurate stream : Yes
Defeat audio cache      : Yes
Make use of C2 pointers : No
Read offset correction                      : 667
Overread into Lead-In and Lead-Out          : No
Fill up missing offset samples with silence : Yes
Delete leading and trailing silent blocks   : No
Null samples used in CRC calculations       : Yes
Used interface                              : Native Win32 interface for Win NT & 2000
Used output format              : User Defined Encoder
Selected bitrate                : 1024 kBit/s
Quality                         : High
Add ID3 tag                     : No
Command line compressor         : C:\Program Files\FLAC\flac.exe
Additional command line options : -8 -V -T "ARTIST=%a" -T "TITLE=%t" -T "ALBUM=%g" -T "DATE=%y" -T "TRACKNUMBER=%n" -T "GENRE=%m" -T "COMMENT=EAC FLAC -8" %s
TOC of the extracted CD
     Track |   Start  |  Length  | Start sector | End sector
    ---------------------------------------------------------
        1  |  0:00.00 |  8:30.55 |         0    |    38304
        2  |  8:30.55 |  4:04.45 |     38305    |    56649
        3  | 12:35.25 |  6:52.55 |     56650    |    87604
        4  | 19:28.05 |  5:20.19 |     87605    |   111623
        5  | 24:48.24 |  6:27.37 |    111624    |   140685
        6  | 31:15.61 |  9:06.68 |    140686    |   181703
        7  | 40:22.54 |  7:42.30 |    181704    |   216383
        8  | 48:05.09 | 11:40.00 |    216384    |   268883
Range status and errors
Selected range
     Filename C:\Heaven & Hell - Live from Radio City Music Hall (2007)\Heaven & Hell - Live From Radio City Music Hall (Disc 1).wav
     Peak level 96.4 %
     Range quality 100.0 %
     Test CRC F35496EB
     Copy CRC F35496EB
     Copy OK
No errors occurred
AccurateRip summary
Track  1  accurately ripped (confidence 32)  [1B8435DF]
Track  2  accurately ripped (confidence 33)  [A583305A]
Track  3  accurately ripped (confidence 33)  [B4CB78D3]
Track  4  accurately ripped (confidence 33)  [699A82C1]
Track  5  accurately ripped (confidence 33)  [E493E763]
Track  6  accurately ripped (confidence 33)  [6D212E74]
Track  7  accurately ripped (confidence 33)  [E6B5DD15]
Track  8  accurately ripped (confidence 33)  [39C38B4F]
All tracks accurately ripped
End of status report

CD 2

Код:
Exact Audio Copy V0.99 prebeta 5 from 4. May 2009
EAC extraction logfile from 30. October 2011, 17:28
Heaven and Hell / Radio City Music Hall Live CD2
Used drive  : HL-DT-STDVDRAM GSA-T20N   Adapter: 1  ID: 0
Read mode               : Secure
Utilize accurate stream : Yes
Defeat audio cache      : Yes
Make use of C2 pointers : No
Read offset correction                      : 667
Overread into Lead-In and Lead-Out          : No
Fill up missing offset samples with silence : Yes
Delete leading and trailing silent blocks   : No
Null samples used in CRC calculations       : Yes
Used interface                              : Native Win32 interface for Win NT & 2000
Used output format              : User Defined Encoder
Selected bitrate                : 1024 kBit/s
Quality                         : High
Add ID3 tag                     : No
Command line compressor         : C:\Program Files\FLAC\flac.exe
Additional command line options : -8 -V -T "ARTIST=%a" -T "TITLE=%t" -T "ALBUM=%g" -T "DATE=%y" -T "TRACKNUMBER=%n" -T "GENRE=%m" -T "COMMENT=EAC FLAC -8" %s
TOC of the extracted CD
     Track |   Start  |  Length  | Start sector | End sector
    ---------------------------------------------------------
        1  |  0:00.00 |  6:41.36 |         0    |    30110
        2  |  6:41.36 |  5:45.14 |     30111    |    55999
        3  | 12:26.50 |  6:05.74 |     56000    |    83448
        4  | 18:32.49 |  7:44.15 |     83449    |   118263
        5  | 26:16.64 | 15:15.40 |    118264    |   186928
        6  | 41:32.29 |  6:48.49 |    186929    |   217577
        7  | 48:21.03 |  7:58.34 |    217578    |   253461
Range status and errors
Selected range
     Filename C:\Heaven & Hell - Live from Radio City Music Hall (2007)\Heaven and Hell - Radio City Music Hall Live CD2.wav
     Peak level 95.6 %
     Range quality 100.0 %
     Test CRC 02661643
     Copy CRC 02661643
     Copy OK
No errors occurred
AccurateRip summary
Track  1  accurately ripped (confidence 33)  [3A6797BC]
Track  2  accurately ripped (confidence 33)  [267BD079]
Track  3  accurately ripped (confidence 33)  [EBD7E56B]
Track  4  accurately ripped (confidence 33)  [F7CAFF15]
Track  5  accurately ripped (confidence 33)  [5434BDB3]
Track  6  accurately ripped (confidence 33)  [2DD35559]
Track  7  accurately ripped (confidence 33)  [A51FCBCA]
All tracks accurately ripped
End of status report

2007 - Live From Radio City Music Hall (2CD)

CD 1

Код:
Exact Audio Copy V1.0 beta 3 from 29. August 2011
EAC extraction logfile from 20. January 2012, 22:00
Heaven & Hell / Live From Radio City Music Hall, CD-1 (VICP-63924)
Used drive  : _NEC    DVD_RW ND-2500A   Adapter: 0  ID: 1
Read mode               : Secure
Utilize accurate stream : Yes
Defeat audio cache      : Yes
Make use of C2 pointers : No
Read offset correction                      : 48
Overread into Lead-In and Lead-Out          : No
Fill up missing offset samples with silence : Yes
Delete leading and trailing silent blocks   : No
Null samples used in CRC calculations       : Yes
Used interface                              : Installed external ASPI interface
Used output format : Internal WAV Routines
Sample format      : 44.100 Hz; 16 Bit; Stereo
TOC of the extracted CD
     Track |   Start  |  Length  | Start sector | End sector
    ---------------------------------------------------------
        1  |  0:00.00 |  8:30.57 |         0    |    38306
        2  |  8:30.57 |  4:04.50 |     38307    |    56656
        3  | 12:35.32 |  6:52.65 |     56657    |    87621
        4  | 19:28.22 |  5:20.10 |     87622    |   111631
        5  | 24:48.32 |  6:27.35 |    111632    |   140691
        6  | 31:15.67 |  9:06.65 |    140692    |   181706
        7  | 40:22.57 |  7:42.35 |    181707    |   216391
        8  | 48:05.17 | 11:40.10 |    216392    |   268901
Range status and errors
Selected range
     Filename G:\bigggwest\Heaven & Hell - Live From Radio City Music Hall, CD-1 (VICP-63924).wav
     Peak level 96.4 %
     Extraction speed 6.2 X
     Range quality 99.9 %
     Test CRC 7A3D57CF
     Copy CRC 7A3D57CF
     Copy OK
No errors occurred
AccurateRip summary
Track  1  accurately ripped (confidence 1)  [BB80E16F]  (AR v1)
Track  2  accurately ripped (confidence 1)  [6108AD38]  (AR v1)
Track  3  accurately ripped (confidence 1)  [E5F0663F]  (AR v1)
Track  4  accurately ripped (confidence 1)  [2E46D6BD]  (AR v1)
Track  5  accurately ripped (confidence 1)  [99F19ED1]  (AR v1)
Track  6  accurately ripped (confidence 1)  [69DCB688]  (AR v1)
Track  7  accurately ripped (confidence 1)  [77A6E138]  (AR v1)
Track  8  accurately ripped (confidence 1)  [6E199C8E]  (AR v1)
All tracks accurately ripped
End of status report

CD 2

Код:
Exact Audio Copy V1.0 beta 3 from 29. August 2011
EAC extraction logfile from 20. January 2012, 22:41
Heaven & Hell / Live - Radio City Music Hall 2007 (Disc 2) (VICP-63925)
Used drive  : _NEC    DVD_RW ND-2500A   Adapter: 0  ID: 1
Read mode               : Secure
Utilize accurate stream : Yes
Defeat audio cache      : Yes
Make use of C2 pointers : No
Read offset correction                      : 48
Overread into Lead-In and Lead-Out          : No
Fill up missing offset samples with silence : Yes
Delete leading and trailing silent blocks   : No
Null samples used in CRC calculations       : Yes
Used interface                              : Installed external ASPI interface
Used output format : Internal WAV Routines
Sample format      : 44.100 Hz; 16 Bit; Stereo
TOC of the extracted CD
     Track |   Start  |  Length  | Start sector | End sector
    ---------------------------------------------------------
        1  |  0:00.00 |  6:41.50 |         0    |    30124
        2  |  6:41.50 |  5:45.00 |     30125    |    55999
        3  | 12:26.50 |  6:06.13 |     56000    |    83462
        4  | 18:32.63 |  7:44.02 |     83463    |   118264
        5  | 26:16.65 | 15:15.40 |    118265    |   186929
        6  | 41:32.30 |  6:48.50 |    186930    |   217579
        7  | 48:21.05 |  7:58.50 |    217580    |   253479
Range status and errors
Selected range
     Filename G:\bigggwest\Heaven & Hell - Live - Radio City Music Hall 2007 (Disc 2) (VICP-63925).wav
     Peak level 95.6 %
     Extraction speed 6.0 X
     Range quality 99.9 %
     Test CRC 290D3EF9
     Copy CRC 290D3EF9
     Copy OK
No errors occurred
AccurateRip summary
Track  1  accurately ripped (confidence 1)  [00CD6474]  (AR v1)
Track  2  accurately ripped (confidence 1)  [0C51DD01]  (AR v1)
Track  3  accurately ripped (confidence 1)  [C50ABD15]  (AR v1)
Track  4  accurately ripped (confidence 1)  [6529D6A2]  (AR v1)
Track  5  accurately ripped (confidence 1)  [05162682]  (AR v1)
Track  6  accurately ripped (confidence 1)  [5ED5B117]  (AR v1)
Track  7  accurately ripped (confidence 1)  [D2FA9592]  (AR v1)
All tracks accurately ripped
End of status report

2009 - The Devil You Know

2009 - The Devil You Know

Код:
Exact Audio Copy V1.0 beta 2 from 29. April 2011
EAC extraction logfile from 12. September 2011, 22:47
Heaven & Hell / The Devil You Know
Used drive  : HL-DT-STDVDRAM GSA-T10N   Adapter: 1  ID: 0
Read mode               : Secure
Utilize accurate stream : Yes
Defeat audio cache      : Yes
Make use of C2 pointers : No
Read offset correction                      : 667
Overread into Lead-In and Lead-Out          : No
Fill up missing offset samples with silence : Yes
Delete leading and trailing silent blocks   : No
Null samples used in CRC calculations       : Yes
Used interface                              : Installed external ASPI interface
Used output format              : User Defined Encoder
Selected bitrate                : 1024 kBit/s
Quality                         : High
Add ID3 tag                     : No
Command line compressor         : C:\Program Files\Exact Audio Copy\Flac\flac.exe
Additional command line options : -V -8 -T "artist=%artist%" -T "title=%title%" -T "album=%albumtitle%" -T "date=%year%" -T "tracknumber=%tracknr%" -T "genre=%genre%" %source%
TOC of the extracted CD
     Track |   Start  |  Length  | Start sector | End sector
    ---------------------------------------------------------
        1  |  0:00.00 |  5:13.12 |         0    |    23486
        2  |  5:13.12 |  4:46.21 |     23487    |    44957
        3  |  9:59.33 |  6:26.53 |     44958    |    73960
        4  | 16:26.11 |  5:23.53 |     73961    |    98238
        5  | 21:49.64 |  6:02.30 |     98239    |   125418
        6  | 27:52.19 |  5:00.07 |    125419    |   147925
        7  | 32:52.26 |  3:35.04 |    147926    |   164054
        8  | 36:27.30 |  6:09.47 |    164055    |   191776
        9  | 42:37.02 |  4:32.39 |    191777    |   212215
       10  | 47:09.41 |  6:53.29 |    212216    |   243219
Range status and errors
Selected range
     Filename G:\Black Sabbath\Heaven & Hell - The Devil You Know.wav
     Peak level 98.9 %
     Extraction speed 4.1 X
     Range quality 100.0 %
     Test CRC 2523078B
     Copy CRC 2523078B
     Copy OK
No errors occurred
AccurateRip summary
Track  1  accurately ripped (confidence 14)  [93F5FBBC]  (AR v2)
Track  2  accurately ripped (confidence 14)  [5A884BDB]  (AR v2)
Track  3  accurately ripped (confidence 14)  [97E65195]  (AR v2)
Track  4  accurately ripped (confidence 14)  [4DCA3D31]  (AR v2)
Track  5  accurately ripped (confidence 14)  [B1E32107]  (AR v2)
Track  6  accurately ripped (confidence 14)  [342318FA]  (AR v2)
Track  7  accurately ripped (confidence 14)  [2E3FCA63]  (AR v2)
Track  8  accurately ripped (confidence 14)  [77085684]  (AR v2)
Track  9  accurately ripped (confidence 14)  [51F7590F]  (AR v2)
Track 10  accurately ripped (confidence 14)  [84D66769]  (AR v2)
All tracks accurately ripped
End of status report

2009 - The Devil You Know

Код:
Exact Audio Copy V0.99 prebeta 5 from 4. May 2009
Отчёт EAC об извлечении, выполненном 15. сентября 2011, 20:08
Heaven & Hell / The Devil You Know
Дисковод: ASUS    SDRW-08D2S-U   Adapter: 2  ID: 0
Режим чтения                 : Достоверность
Использование точного потока : Да
Отключение кэша аудио        : Да
Использование указателей C2  : Нет
Коррекция смещения при чтении                     : 103
Способность читать области Lead-in и Lead-out     : Нет
Заполнение пропущенных сэмплов тишиной            : Да
Удаление блоков с тишиной в начале и конце        : Нет
При вычислениях CRC использовались нулевые сэмплы : Да
Интерфейс                                         : Встроенный Win32-интерфейс для Win NT/2000
Выходной формат          : Пользовательский кодировщик
Выбранный битрейт        : 768 kBit/s
Качество                 : Высокий
Добавление ID3-тэга      : Нет
Утилита сжатия           : C:\Program Files\Exact Audio Copy\FLAC\FLAC.EXE
Дополнительные параметры : -8 -V %s
TOC извлечённого CD
     Трек |   Старт  | Длительность | Начальный сектор | Конечный сектор
    ---------------------------------------------------------------------
       1  |  0:00.00 |    5:13.51   |           0      |      23525
       2  |  5:13.51 |    4:46.04   |       23526      |      44979
       3  |  9:59.55 |    6:26.60   |       44980      |      73989
       4  | 16:26.40 |    5:23.45   |       73990      |      98259
       5  | 21:50.10 |    6:02.37   |       98260      |     125446
       6  | 27:52.47 |    5:00.10   |      125447      |     147956
       7  | 32:52.57 |    3:34.68   |      147957      |     164074
       8  | 36:27.50 |    6:09.45   |      164075      |     191794
       9  | 42:37.20 |    4:32.40   |      191795      |     212234
      10  | 47:09.60 |    6:54.07   |      212235      |     243291
Характеристики диапазона извлечения и сообщения об ошибках
Выбранный диапазон
     Имя файла D:\uTorrent.compl\Heaven & Hell - 'The Devil You Know' 2009 ( VICP-70106 )\Heaven & Hell - The Devil You Know.wav
     Пиковый уровень 98.9 %
     Качество диапазона 100.0 %
     CRC теста CE0F985E
     CRC копии CE0F985E
     Копирование... OK
Ошибок не произошло
AccurateRip: сводка
Трек  1  точное извлечение (доверие 4)  [DC84CA29]
Трек  2  точное извлечение (доверие 4)  [CFB806E3]
Трек  3  точное извлечение (доверие 4)  [FFC8E00D]
Трек  4  точное извлечение (доверие 4)  [61975773]
Трек  5  точное извлечение (доверие 4)  [9E952875]
Трек  6  точное извлечение (доверие 4)  [00FAC8E7]
Трек  7  точное извлечение (доверие 4)  [9C8F3852]
Трек  8  точное извлечение (доверие 4)  [6187F2DA]
Трек  9  точное извлечение (доверие 4)  [FA2725FB]
Трек 10  точное извлечение (доверие 4)  [840FAC3D]
Все треки извлечены точно
Конец отчёта

2009 - The Devil You Know

Код:
Exact Audio Copy V1.0 beta 3 from 29. August 2011
EAC extraction logfile from 19. July 2012, 15:48
Heaven & Hell / The Devil You Know
Used drive  : hp      CDDVDW TS-U633J   Adapter: 0  ID: 1
Read mode               : Secure
Utilize accurate stream : Yes
Defeat audio cache      : Yes
Make use of C2 pointers : No
Read offset correction                      : 6
Overread into Lead-In and Lead-Out          : No
Fill up missing offset samples with silence : Yes
Delete leading and trailing silent blocks   : No
Null samples used in CRC calculations       : Yes
Used interface                              : Native Win32 interface for Win NT & 2000
Used output format : Internal WAV Routines
Sample format      : 44.100 Hz; 16 Bit; Stereo
TOC of the extracted CD
     Track |   Start  |  Length  | Start sector | End sector
    ---------------------------------------------------------
        1  |  0:00.00 |  5:13.35 |         0    |    23509
        2  |  5:13.35 |  4:45.70 |     23510    |    44954
        3  |  9:59.30 |  6:27.02 |     44955    |    73981
        4  | 16:26.32 |  5:23.28 |     73982    |    98234
        5  | 21:49.60 |  6:02.55 |     98235    |   125439
        6  | 27:52.40 |  5:00.07 |    125440    |   147946
        7  | 32:52.47 |  3:34.53 |    147947    |   164049
        8  | 36:27.25 |  6:09.47 |    164050    |   191771
        9  | 42:36.72 |  4:32.38 |    191772    |   212209
       10  | 47:09.35 |  6:53.60 |    212210    |   243244
Range status and errors
Selected range
     Filename C:\Music\Heaven & Hell - The Devil You Know (Rhino, R2 518862)\Heaven & Hell - The Devil You Know.wav
     Peak level 98.7 %
     Extraction speed 3.6 X
     Range quality 100.0 %
     Test CRC 6D825797
     Copy CRC 6D825797
     Copy OK
No errors occurred
AccurateRip summary
Track  1  accurately ripped (confidence 10)  [979C27E8]  (AR v2)
Track  2  accurately ripped (confidence 10)  [39234206]  (AR v2)
Track  3  accurately ripped (confidence 10)  [7FE551F4]  (AR v2)
Track  4  accurately ripped (confidence 10)  [C1D4C55D]  (AR v2)
Track  5  accurately ripped (confidence 10)  [967E82E4]  (AR v2)
Track  6  accurately ripped (confidence 10)  [9A2A9039]  (AR v2)
Track  7  accurately ripped (confidence 10)  [5886BE68]  (AR v2)
Track  8  accurately ripped (confidence 10)  [28326C7C]  (AR v2)
Track  9  accurately ripped (confidence 10)  [2E4C9D8A]  (AR v2)
Track 10  accurately ripped (confidence 10)  [4AD32A56]  (AR v2)
All tracks accurately ripped
End of status report

2010 - Neon Nights Live in Europe

2010 - Neon Nights Live at Wacken - 30 Years of Heaven & Hell (DE; Wacken Festival; 30.7.2009)

Код:
Exact Audio Copy V1.0 beta 3 from 29. August 2011
EAC extraction logfile from 17. May 2012, 21:44
Heaven & Hell / Neon Nights - 30 Years of Heaven & Hell (DE; Wacken Festival; 30.7.2009)
Used drive  : PIONEER DVD-RW  DVR-111D   Adapter: 1  ID: 0
Read mode               : Secure
Utilize accurate stream : Yes
Defeat audio cache      : Yes
Make use of C2 pointers : No
Read offset correction                      : 48
Overread into Lead-In and Lead-Out          : No
Fill up missing offset samples with silence : Yes
Delete leading and trailing silent blocks   : No
Null samples used in CRC calculations       : Yes
Used interface                              : Native Win32 interface for Win NT & 2000
Used output format : Internal WAV Routines
Sample format      : 44.100 Hz; 16 Bit; Stereo
TOC of the extracted CD
     Track |   Start  |  Length  | Start sector | End sector
    ---------------------------------------------------------
        1  |  0:00.00 |  3:46.57 |         0    |    17006
        2  |  3:46.57 |  6:30.47 |     17007    |    46303
        3  | 10:17.29 |  6:16.57 |     46304    |    74560
        4  | 16:34.11 |  6:29.70 |     74561    |   103805
        5  | 23:04.06 |  4:39.74 |    103806    |   124804
        6  | 27:44.05 |  4:36.23 |    124805    |   145527
        7  | 32:20.28 |  5:39.67 |    145528    |   171019
        8  | 38:00.20 |  6:11.72 |    171020    |   198916
        9  | 44:12.17 |  6:41.66 |    198917    |   229057
       10  | 50:54.08 | 17:48.51 |    229058    |   309208
       11  | 68:42.59 |  5:45.17 |    309209    |   335100
Range status and errors
Selected range
     Filename E:\Heaven&Hell - Live at Wacken\Heaven & Hell - Neon Nights - 30 Years of Heaven & Hell (DE; Wacken Festival; 30.7.2009).wav
     Peak level 98.8 %
     Extraction speed 8.0 X
     Range quality 100.0 %
     Test CRC D34529BC
     Copy CRC D34529BC
     Copy OK
No errors occurred
AccurateRip summary
Track  1  accurately ripped (confidence 7)  [D9F7CBBF]  (AR v2)
Track  2  accurately ripped (confidence 7)  [6788CB22]  (AR v2)
Track  3  accurately ripped (confidence 7)  [B09DEA3A]  (AR v2)
Track  4  accurately ripped (confidence 7)  [FC2FBC13]  (AR v2)
Track  5  accurately ripped (confidence 7)  [DBCEA696]  (AR v2)
Track  6  accurately ripped (confidence 7)  [DDAE083E]  (AR v2)
Track  7  accurately ripped (confidence 7)  [FDF665DF]  (AR v2)
Track  8  accurately ripped (confidence 7)  [D6BCD254]  (AR v2)
Track  9  accurately ripped (confidence 7)  [238EB655]  (AR v2)
Track 10  accurately ripped (confidence 7)  [4B9185D2]  (AR v2)
Track 11  accurately ripped (confidence 7)  [4A407E19]  (AR v2)
All tracks accurately ripped
End of status report

2010 - Neon Nights Live at Wacken

Код:
Exact Audio Copy V0.99 prebeta 5 from 4. May 2009
Archivo Log de extracciones desde 10. Julio 2013, 12:03
Heaven & Hell / Neon Nights: Live at Wacken - Japan SHM-CD (VQCD-10207)
Usar unidad  : HL-DT-STDVDRAM GH22NS70   Adapter: 0  ID: 0
Modo de Lectura           : Seguro
Utilizar Corriente Exacta : Sн
Descartar Audio cachй     : Sн
Utilizar los punteros C2  : No
Correcciуn de Desplazamiento de Lectura         : 667
Sobreleer tanto en Lead-In como en Lead-Out     : No
Rellenar las muestras faltantes con silencios   : Sн
Eliminar silencios inicial y final              : No
Se han usado muestras nulas en los cбlculos CRC : Sн
Interfaz usada                                  : Interfaz propio de Win32 para Windowns NT y 2000
Formato de Salida utilizado               : Compresor definido por el usuario
Bitrate seleccionado                      : 32 kBit/s
Calidad                                   : Alta
Aсadir Etiqueta ID3                       : No
Compresor de linea de comandos            : C:\Program Files (x86)\Exact Audio Copy\Flac\flac.exe
Opciones adicionales en lнnea de comandos : -6 -V %s
TOC del CD extraido
     Pista |  Inicio  | Duraciуn | Sector inicial | Sector final
    -------------------------------------------------------------
        1  |  0:00.00 |  3:46.57 |          0     |     17006
        2  |  3:46.57 |  6:30.47 |      17007     |     46303
        3  | 10:17.29 |  6:16.57 |      46304     |     74560
        4  | 16:34.11 |  6:29.70 |      74561     |    103805
        5  | 23:04.06 |  4:39.74 |     103806     |    124804
        6  | 27:44.05 |  4:36.23 |     124805     |    145527
        7  | 32:20.28 |  5:39.67 |     145528     |    171019
        8  | 38:00.20 |  6:11.72 |     171020     |    198916
        9  | 44:12.17 |  6:41.66 |     198917     |    229057
       10  | 50:54.08 | 17:48.51 |     229058     |    309208
       11  | 68:42.59 |  5:45.17 |     309209     |    335100
Gama de estados y errores
Seleccionar gama
     Nombre de Archivo E:\Mъsica\EAC\Heaven And Hell\Neon Nights\Heaven & Hell - Neon Nights  Live at Wacken - Japan SHM-CD (VQCD-10207).wav
     Nivel Pico 98.8 %
     Gama de Calidad 100.0 %
     Test CRC 602CCC34
     Copiar CRC 602CCC34
     Copia OK
Sin Errores
Resumen AccurateRip
Pista  1  extraido de modo preciso (nivel de confianza 3)  [4BFB77E4]
Pista  2  extraido de modo preciso (nivel de confianza 3)  [DF614D0D]
Pista  3  extraido de modo preciso (nivel de confianza 4)  [B08C07DB]
Pista  4  extraido de modo preciso (nivel de confianza 4)  [FC0132FF]
Pista  5  extraido de modo preciso (nivel de confianza 4)  [233565F2]
Pista  6  extraido de modo preciso (nivel de confianza 4)  [D9961C41]
Pista  7  extraido de modo preciso (nivel de confianza 4)  [8D74AC87]
Pista  8  extraido de modo preciso (nivel de confianza 4)  [B7BFDD24]
Pista  9  extraido de modo preciso (nivel de confianza 4)  [98F80C89]
Pista 10  extraido de modo preciso (nivel de confianza 4)  [836B49FE]
Pista 11  extraido de modo preciso (nivel de confianza 4)  [BDF737B6]
Todas las pistas extraidas de modo preciso
Final del Informe

2010 - Neon Nights Live in Europe

Код:
Exact Audio Copy V0.99 prebeta 5 from 4. May 2009
Отчёт EAC об извлечении, выполненном 17. января 2011, 12:46
Heaven & Hell / Neon Nights
Дисковод: TSSTcorpCDDVDW TS-H653N   Adapter: 3  ID: 0
Режим чтения                 : Достоверность
Использование точного потока : Да
Отключение кэша аудио        : Да
Использование указателей C2  : Нет
Коррекция смещения при чтении                     : 6
Способность читать области Lead-in и Lead-out     : Нет
Заполнение пропущенных сэмплов тишиной            : Да
Удаление блоков с тишиной в начале и конце        : Нет
При вычислениях CRC использовались нулевые сэмплы : Да
Интерфейс                                         : Встроенный Win32-интерфейс для Win NT/2000
Выходной формат : Внутренние WAV-операции
Формат сэмплов  : 44.100 Гц; 16 бит; стерео
TOC извлечённого CD
     Трек |   Старт  | Длительность | Начальный сектор | Конечный сектор
    ---------------------------------------------------------------------
       1  |  0:00.00 |    3:46.57   |           0      |      17006
       2  |  3:46.57 |    6:30.47   |       17007      |      46303
       3  | 10:17.29 |    6:16.57   |       46304      |      74560
       4  | 16:34.11 |    6:29.70   |       74561      |     103805
       5  | 23:04.06 |    4:39.74   |      103806      |     124804
       6  | 27:44.05 |    4:36.23   |      124805      |     145527
       7  | 32:20.28 |    5:39.67   |      145528      |     171019
       8  | 38:00.20 |    6:11.72   |      171020      |     198916
       9  | 44:12.17 |    6:41.66   |      198917      |     229057
      10  | 50:54.08 |   17:48.51   |      229058      |     309208
      11  | 68:42.59 |    5:45.17   |      309209      |     335100
Характеристики диапазона извлечения и сообщения об ошибках
Выбранный диапазон
     Имя файла C:\Новая папка\Heaven & Hell - Neon Nights.wav
     Пиковый уровень 98.8 %
     Качество диапазона 100.0 %
     CRC теста A0D9F6E9
     CRC копии A0D9F6E9
     Копирование... OK
Ошибок не произошло
AccurateRip: сводка
Трек  1  точное извлечение (доверие 4)  [C26C4B76]
Трек  2  точное извлечение (доверие 4)  [493A6835]
Трек  3  точное извлечение (доверие 4)  [0932E2E8]
Трек  4  точное извлечение (доверие 4)  [078CB25C]
Трек  5  точное извлечение (доверие 4)  [37F63DE7]
Трек  6  точное извлечение (доверие 4)  [B4B15BEC]
Трек  7  точное извлечение (доверие 4)  [CA372527]
Трек  8  точное извлечение (доверие 4)  [E26C1A86]
Трек  9  точное извлечение (доверие 4)  [CC1EDC46]
Трек 10  точное извлечение (доверие 4)  [D5BAB5E2]
Трек 11  точное извлечение (доверие 4)  [F8B2447B]
Все треки извлечены точно
Конец отчёта

_________________
Разница между теорией и практикой в том, что теоретически разницы между теорией и практикой нет, а на практике она есть.
[Профиль] [ЛС]

Офлайн

sergej644

Стаж:
5 лет 1 месяц
Сообщений:
818

Индексная карта (non-compilant .cue)

2007 - Live From Radio City Music Hall

2007 - Live From Radio City Music Hall (2CD)

CD 1

Код:
REM GENRE "Heavy Metal"
REM DATE 2007
REM DISCID 700E0108
REM COMMENT "ExactAudioCopy v0.99pb5"
PERFORMER "Heaven & Hell"
TITLE "Live From Radio City Music Hall (Disc 1)"
FILE "Heaven & Hell - Live From Radio City Music Hall (Disc 1).flac" WAVE
  TRACK 01 AUDIO
    TITLE "E5150 - After All (The Dead)"
    PERFORMER "Heaven & Hell"
    INDEX 01 00:00:00
  TRACK 02 AUDIO
    TITLE "The Mob Rules"
    PERFORMER "Heaven & Hell"
    INDEX 01 08:30:55
  TRACK 03 AUDIO
    TITLE "Children Of The Sea"
    PERFORMER "Heaven & Hell"
    INDEX 01 12:35:25
  TRACK 04 AUDIO
    TITLE "Lady Evil"
    PERFORMER "Heaven & Hell"
    INDEX 01 19:28:05
  TRACK 05 AUDIO
    TITLE "I"
    PERFORMER "Heaven & Hell"
    INDEX 01 24:48:24
  TRACK 06 AUDIO
    TITLE "The Sign Of The Southern Cross"
    PERFORMER "Heaven & Hell"
    INDEX 01 31:15:61
  TRACK 07 AUDIO
    TITLE "Voodoo"
    PERFORMER "Heaven & Hell"
    INDEX 01 40:22:54
  TRACK 08 AUDIO
    TITLE "The Devil Cried"
    PERFORMER "Heaven & Hell"
    INDEX 01 48:05:09

CD 2

Код:
REM GENRE "Heavy Metal"
REM DATE 2007
REM DISCID 590D3307
REM COMMENT "ExactAudioCopy v0.99pb5"
PERFORMER "Heaven and Hell"
TITLE "Radio City Music Hall Live CD2"
FILE "Heaven and Hell - Radio City Music Hall Live CD2.flac" WAVE
  TRACK 01 AUDIO
    TITLE "Computer God"
    PERFORMER "Heaven and Hell"
    INDEX 01 00:00:00
  TRACK 02 AUDIO
    TITLE "Falling Off The Edge Of The World"
    PERFORMER "Heaven and Hell"
    INDEX 01 06:41:36
  TRACK 03 AUDIO
    TITLE "Shadow Of The Wind"
    PERFORMER "Heaven and Hell"
    INDEX 00 12:26:31
    INDEX 01 12:26:50
  TRACK 04 AUDIO
    TITLE "Die Young"
    PERFORMER "Heaven and Hell"
    INDEX 01 18:32:49
  TRACK 05 AUDIO
    TITLE "Heaven And Hell"
    PERFORMER "Heaven and Hell"
    INDEX 01 26:16:64
  TRACK 06 AUDIO
    TITLE "Lonely Is The Word"
    PERFORMER "Heaven and Hell"
    INDEX 01 41:32:29
  TRACK 07 AUDIO
    TITLE "Neon Knights"
    PERFORMER "Heaven and Hell"
    INDEX 01 48:21:03

2007 - Live From Radio City Music Hall (2CD)

CD 1

Код:
REM GENRE "Heavy Metal"
REM DATE 2007
REM DISCID 700E0108
REM COMMENT "ExactAudioCopy v1.0b3"
PERFORMER "Heaven & Hell"
TITLE "Live From Radio City Music Hall, CD-1 (VICP-63924)"
FILE "Heaven & Hell - Live From Radio City Music Hall, CD-1 (VICP-63924).flac" WAVE
  TRACK 01 AUDIO
    TITLE "E5150 \ After All (The Dead)"
    PERFORMER "Heaven & Hell"
    INDEX 01 00:00:00
  TRACK 02 AUDIO
    TITLE "The Mob Rules"
    PERFORMER "Heaven & Hell"
    INDEX 01 08:30:57
  TRACK 03 AUDIO
    TITLE "Children Of The Sea"
    PERFORMER "Heaven & Hell"
    INDEX 01 12:35:32
  TRACK 04 AUDIO
    TITLE "Lady Evil"
    PERFORMER "Heaven & Hell"
    INDEX 01 19:28:22
  TRACK 05 AUDIO
    TITLE "I"
    PERFORMER "Heaven & Hell"
    INDEX 01 24:48:32
  TRACK 06 AUDIO
    TITLE "The Sign Of The Southern Cross"
    PERFORMER "Heaven & Hell"
    INDEX 01 31:15:67
  TRACK 07 AUDIO
    TITLE "Voodoo"
    PERFORMER "Heaven & Hell"
    INDEX 01 40:22:57
  TRACK 08 AUDIO
    TITLE "The Devil Cried"
    PERFORMER "Heaven & Hell"
    INDEX 01 48:05:17

CD 2

Код:
REM GENRE "Heavy Metal"
REM DATE 2007
REM DISCID 590D3307
REM COMMENT "ExactAudioCopy v1.0b3"
PERFORMER "Heaven & Hell"
TITLE "Live - Radio City Music Hall 2007 (Disc 2) (VICP-63925)"
FILE "Heaven & Hell - Live - Radio City Music Hall 2007 (Disc 2) (VICP-63925).flac" WAVE
  TRACK 01 AUDIO
    TITLE "Computer God"
    PERFORMER "Heaven & Hell"
    INDEX 01 00:00:00
  TRACK 02 AUDIO
    TITLE "Falling Off The Edge Of The World"
    PERFORMER "Heaven & Hell"
    INDEX 01 06:41:50
  TRACK 03 AUDIO
    TITLE "Shadow Of The Wind"
    PERFORMER "Heaven & Hell"
    INDEX 01 12:26:50
  TRACK 04 AUDIO
    TITLE "Die Young"
    PERFORMER "Heaven & Hell"
    INDEX 01 18:32:63
  TRACK 05 AUDIO
    TITLE "Heaven And Hell"
    PERFORMER "Heaven & Hell"
    INDEX 01 26:16:65
  TRACK 06 AUDIO
    TITLE "Lonely Is The Word"
    PERFORMER "Heaven & Hell"
    INDEX 01 41:32:30
  TRACK 07 AUDIO
    TITLE "Neon Knights"
    PERFORMER "Heaven & Hell"
    INDEX 01 48:21:05

2009 - The Devil You Know

2009 - The Devil You Know

Код:
REM GENRE "Hard Rock"
REM DATE 2009
REM DISCID 8F0CAA0A
REM COMMENT "ExactAudioCopy v1.0b2"
PERFORMER "Heaven & Hell"
TITLE "The Devil You Know"
FILE "Heaven & Hell - The Devil You Know.flac" WAVE
  TRACK 01 AUDIO
    TITLE "Atom And Evil"
    PERFORMER "Heaven & Hell"
    INDEX 01 00:00:00
  TRACK 02 AUDIO
    TITLE "Fear"
    PERFORMER "Heaven & Hell"
    INDEX 01 05:13:12
  TRACK 03 AUDIO
    TITLE "Bible Black"
    PERFORMER "Heaven & Hell"
    INDEX 01 09:59:33
  TRACK 04 AUDIO
    TITLE "Double The Pain"
    PERFORMER "Heaven & Hell"
    INDEX 01 16:26:11
  TRACK 05 AUDIO
    TITLE "Rock And Roll Angel"
    PERFORMER "Heaven & Hell"
    INDEX 01 21:49:64
  TRACK 06 AUDIO
    TITLE "The Turn Of The Screw"
    PERFORMER "Heaven & Hell"
    INDEX 01 27:52:19
  TRACK 07 AUDIO
    TITLE "Eating The Cannibals"
    PERFORMER "Heaven & Hell"
    INDEX 01 32:52:26
  TRACK 08 AUDIO
    TITLE "Follow The Tears"
    PERFORMER "Heaven & Hell"
    INDEX 01 36:27:30
  TRACK 09 AUDIO
    TITLE "Neverwhere"
    PERFORMER "Heaven & Hell"
    INDEX 01 42:37:02
  TRACK 10 AUDIO
    TITLE "Breaking Into Heaven"
    PERFORMER "Heaven & Hell"
    INDEX 01 47:09:41

2009 - The Devil You Know

Код:
REM GENRE "Hard Rock"
REM DATE 2009
REM DISCID 900CAB0A
REM COMMENT "ExactAudioCopy v0.99pb5"
PERFORMER "Heaven & Hell"
TITLE "The Devil You Know"
FILE "Heaven & Hell - The Devil You Know.flac" WAVE
  TRACK 01 AUDIO
    TITLE "Atom and Evil"
    PERFORMER "Heaven & Hell"
    INDEX 01 00:00:00
  TRACK 02 AUDIO
    TITLE "Fear"
    PERFORMER "Heaven & Hell"
    INDEX 01 05:13:51
  TRACK 03 AUDIO
    TITLE "Bible Black"
    PERFORMER "Heaven & Hell"
    INDEX 01 09:59:55
  TRACK 04 AUDIO
    TITLE "Double the Pain"
    PERFORMER "Heaven & Hell"
    INDEX 01 16:26:40
  TRACK 05 AUDIO
    TITLE "Rock and Roll Angel"
    PERFORMER "Heaven & Hell"
    INDEX 01 21:50:10
  TRACK 06 AUDIO
    TITLE "The Turn of the Screw"
    PERFORMER "Heaven & Hell"
    INDEX 01 27:52:47
  TRACK 07 AUDIO
    TITLE "Eating the Cannibals"
    PERFORMER "Heaven & Hell"
    INDEX 01 32:52:57
  TRACK 08 AUDIO
    TITLE "Follow the Tears"
    PERFORMER "Heaven & Hell"
    INDEX 01 36:27:50
  TRACK 09 AUDIO
    TITLE "Neverwhere"
    PERFORMER "Heaven & Hell"
    INDEX 01 42:37:20
  TRACK 10 AUDIO
    TITLE "Breaking into Heaven"
    PERFORMER "Heaven & Hell"
    INDEX 01 47:09:60

2009 - The Devil You Know

Код:
REM GENRE "Heavy Metal"
REM DATE 2009
REM DISCID 8E0CAB0A
REM COMMENT "ExactAudioCopy v1.0b3"
PERFORMER "Heaven & Hell"
TITLE "The Devil You Know"
FILE "Heaven & Hell - The Devil You Know.wav" WAVE
  TRACK 01 AUDIO
    TITLE "Atom and Evil"
    PERFORMER "Heaven & Hell"
    INDEX 01 00:00:00
  TRACK 02 AUDIO
    TITLE "Fear"
    PERFORMER "Heaven & Hell"
    INDEX 01 05:13:35
  TRACK 03 AUDIO
    TITLE "Bible Black"
    PERFORMER "Heaven & Hell"
    INDEX 00 09:57:45
    INDEX 01 09:59:30
  TRACK 04 AUDIO
    TITLE "Double the Pain"
    PERFORMER "Heaven & Hell"
    INDEX 01 16:26:32
  TRACK 05 AUDIO
    TITLE "Rock and Roll Angel"
    PERFORMER "Heaven & Hell"
    INDEX 00 21:49:07
    INDEX 01 21:49:60
  TRACK 06 AUDIO
    TITLE "The Turn of the Screw"
    PERFORMER "Heaven & Hell"
    INDEX 01 27:52:40
  TRACK 07 AUDIO
    TITLE "Eating the Cannibals"
    PERFORMER "Heaven & Hell"
    INDEX 01 32:52:47
  TRACK 08 AUDIO
    TITLE "Follow the Tears"
    PERFORMER "Heaven & Hell"
    INDEX 00 36:25:65
    INDEX 01 36:27:25
  TRACK 09 AUDIO
    TITLE "Neverwhere"
    PERFORMER "Heaven & Hell"
    INDEX 00 42:36:32
    INDEX 01 42:36:72
  TRACK 10 AUDIO
    TITLE "Breaking into Heaven"
    PERFORMER "Heaven & Hell"
    INDEX 00 47:09:20
    INDEX 01 47:09:35

2010 - Neon Nights Live in Europe

2010 - Neon Nights Live at Wacken - 30 Years of Heaven & Hell (DE; Wacken Festival; 30.7.2009)

Код:
REM GENRE "Heavy Metal"
REM DATE 2010
REM DISCID A311740B
REM COMMENT "ExactAudioCopy v1.0b3"
PERFORMER "Heaven & Hell"
TITLE "Neon Nights - 30 Years of Heaven & Hell (DE; Wacken Festival; 30.7.2009)"
FILE "Heaven & Hell - Neon Nights - 30 Years of Heaven & Hell (DE; Wacken Festival; 30.7.2009).flac" WAVE
  TRACK 01 AUDIO
    TITLE "The Mob Rules"
    PERFORMER "Heaven & Hell"
    INDEX 01 00:00:00
  TRACK 02 AUDIO
    TITLE "Children Of The Sea"
    PERFORMER "Heaven & Hell"
    INDEX 01 03:46:57
  TRACK 03 AUDIO
    TITLE "I"
    PERFORMER "Heaven & Hell"
    INDEX 01 10:17:29
  TRACK 04 AUDIO
    TITLE "Bible Black"
    PERFORMER "Heaven & Hell"
    INDEX 01 16:34:11
  TRACK 05 AUDIO
    TITLE "Time Machine"
    PERFORMER "Heaven & Hell"
    INDEX 01 23:04:06
  TRACK 06 AUDIO
    TITLE "Fear"
    PERFORMER "Heaven & Hell"
    INDEX 01 27:44:05
  TRACK 07 AUDIO
    TITLE "Falling Off The Edge Of The World"
    PERFORMER "Heaven & Hell"
    INDEX 01 32:20:28
  TRACK 08 AUDIO
    TITLE "Follow The Tears"
    PERFORMER "Heaven & Hell"
    INDEX 01 38:00:20
  TRACK 09 AUDIO
    TITLE "Die Young"
    PERFORMER "Heaven & Hell"
    INDEX 01 44:12:17
  TRACK 10 AUDIO
    TITLE "Heaven And Hell"
    PERFORMER "Heaven & Hell"
    INDEX 01 50:54:08
  TRACK 11 AUDIO
    TITLE "Neon Knights"
    PERFORMER "Heaven & Hell"
    INDEX 01 68:42:59

2010 - Neon Nights Live at Wacken

Код:
REM GENRE "Heavy Metal"
REM DATE 2010
REM DISCID A311740B
REM COMMENT "ExactAudioCopy v0.99pb5"
PERFORMER "Heaven & Hell"
TITLE "Neon Nights: Live at Wacken - Japan SHM-CD (VQCD-10207)"
FILE "Heaven & Hell - Neon Nights  Live at Wacken - Japan SHM-CD (VQCD-10207).flac" WAVE
  TRACK 01 AUDIO
    TITLE "Mob Rules "
    PERFORMER "Heaven & Hell"
    INDEX 01 00:00:00
  TRACK 02 AUDIO
    TITLE "Children Of The Sea "
    PERFORMER "Heaven & Hell"
    INDEX 01 03:46:57
  TRACK 03 AUDIO
    TITLE "I "
    PERFORMER "Heaven & Hell"
    INDEX 01 10:17:29
  TRACK 04 AUDIO
    TITLE "Bible Black"
    PERFORMER "Heaven & Hell"
    INDEX 01 16:34:11
  TRACK 05 AUDIO
    TITLE "Time Machine"
    PERFORMER "Heaven & Hell"
    INDEX 01 23:04:06
  TRACK 06 AUDIO
    TITLE "Fear"
    PERFORMER "Heaven & Hell"
    INDEX 01 27:44:05
  TRACK 07 AUDIO
    TITLE "Falling Off The Edge Of The World"
    PERFORMER "Heaven & Hell"
    INDEX 01 32:20:28
  TRACK 08 AUDIO
    TITLE "Follow The Tears"
    PERFORMER "Heaven & Hell"
    INDEX 01 38:00:20
  TRACK 09 AUDIO
    TITLE "Die Young"
    PERFORMER "Heaven & Hell"
    INDEX 01 44:12:17
  TRACK 10 AUDIO
    TITLE "Heaven And Hell"
    PERFORMER "Heaven & Hell"
    INDEX 01 50:54:08
  TRACK 11 AUDIO
    TITLE "Neon Knights"
    PERFORMER "Heaven & Hell"
    INDEX 01 68:42:59

2010 - Neon Nights Live in Europe

Код:
REM GENRE "Heavy Metal"
REM DATE 2010
REM DISCID A311740B
REM COMMENT "ExactAudioCopy v0.99pb5"
PERFORMER "Heaven & Hell"
TITLE "Neon Nights"
FILE "Heaven & Hell - Live in Europe.flac" WAVE
  TRACK 01 AUDIO
    TITLE "Mob Rules"
    PERFORMER "Heaven & Hell"
    INDEX 01 00:00:00
  TRACK 02 AUDIO
    TITLE "Children Of The Sea"
    PERFORMER "Heaven & Hell"
    INDEX 01 03:46:57
  TRACK 03 AUDIO
    TITLE "I"
    PERFORMER "Heaven & Hell"
    INDEX 01 10:17:29
  TRACK 04 AUDIO
    TITLE "Bible Black"
    PERFORMER "Heaven & Hell"
    INDEX 01 16:34:11
  TRACK 05 AUDIO
    TITLE "Time Machine"
    PERFORMER "Heaven & Hell"
    INDEX 01 23:04:06
  TRACK 06 AUDIO
    TITLE "Fear"
    PERFORMER "Heaven & Hell"
    INDEX 01 27:44:05
  TRACK 07 AUDIO
    TITLE "Falling Off The Edge Of The World"
    PERFORMER "Heaven & Hell"
    INDEX 01 32:20:28
  TRACK 08 AUDIO
    TITLE "Follow The Tears"
    PERFORMER "Heaven & Hell"
    INDEX 01 38:00:20
  TRACK 09 AUDIO
    TITLE "Die Young"
    PERFORMER "Heaven & Hell"
    INDEX 01 44:12:17
  TRACK 10 AUDIO
    TITLE "Heaven And Hell"
    PERFORMER "Heaven & Hell"
    INDEX 01 50:54:08
  TRACK 11 AUDIO
    TITLE "Neon Knights"
    PERFORMER "Heaven & Hell"
    INDEX 01 68:42:59

_________________
Разница между теорией и практикой в том, что теоретически разницы между теорией и практикой нет, а на практике она есть.
[Профиль] [ЛС]
Показать сообщения:    

Текущее время: Сегодня 23:26

Часовой пояс: GMT + 3



Вы не можете начинать темы
Вы не можете отвечать на сообщения
Вы не можете редактировать свои сообщения
Вы не можете удалять свои сообщения
Вы не можете голосовать в опросах
Вы не можете прикреплять файлы к сообщениям
Вы не можете скачивать файлы