Золотые дни идет свободное скачивание без начисления Download
 

Офлайн

sergej644

Стаж:
5 лет 1 месяц
Сообщений:
818

-Dario Mollo's Crossbones - Rock The Cradle (Japanese Edition)--
Год издания: 2016
Страна: Italy
Жанр: Heavy Metal
Продолжительность: 00:53:10-Лейбл издания: King Record Co., Ltd.
Страна-выпуска диска: Japan
Номер по каталогу: KICP 1821-Формат: FLAC
Битрейт аудио: Lossless
Тип рипа: image +.cue
Наличие сканов в содержимом раздачи: да
-

Трэклист


01.Red(4:37)
02.Take Me High(4:09)
03.Navigation(4:10)
04.Rock The Cradle(4:31)
05.Gates Of Time(6:24)
06.I Got This Feeling(4:15)
07.In My Blood(4:34)
08.Running From The Shadow(4:07)
09.Speed(4:29)
10.Fright(5:31)
11.Gates Of Time (Orchestral Version) ( Bonus Track)(6:24)
-

Лог создания рипа

Код:
Exact Audio Copy V1.3 from 2. September 2016
EAC extraction logfile from 5. December 2016, 11:30
Dario Mollo's Crossbones / Rock The Cradle (Japan)
Used drive  : ATAPI   iHAS122   W   Adapter: 2  ID: 0
Read mode               : Secure
Utilize accurate stream : Yes
Defeat audio cache      : Yes
Make use of C2 pointers : No
Read offset correction                      : 48
Overread into Lead-In and Lead-Out          : No
Fill up missing offset samples with silence : Yes
Delete leading and trailing silent blocks   : No
Null samples used in CRC calculations       : Yes
Used interface                              : Installed external ASPI interface
Used output format              : User Defined Encoder
Selected bitrate                : 1024 kBit/s
Quality                         : High
Add ID3 tag                     : Yes
Command line compressor         : C:\Program Files\FLAC\flac.exe
Additional command line options : -V -8 -T "Date=%year%" -T "Genre=%genre%" -T"COMMENT=Ripped by  Ilijan" -8 -V %source%
TOC of the extracted CD
     Track |   Start  |  Length  | Start sector | End sector
    ---------------------------------------------------------
        1  |  0:00.00 |  4:36.49 |         0    |    20748
        2  |  4:36.49 |  4:09.34 |     20749    |    39457
        3  |  8:46.08 |  4:09.41 |     39458    |    58173
        4  | 12:55.49 |  4:30.58 |     58174    |    78481
        5  | 17:26.32 |  6:24.24 |     78482    |   107305
        6  | 23:50.56 |  4:14.58 |    107306    |   126413
        7  | 28:05.39 |  4:34.12 |    126414    |   146975
        8  | 32:39.51 |  4:06.46 |    146976    |   165471
        9  | 36:46.22 |  4:29.15 |    165472    |   185661
       10  | 41:15.37 |  5:31.24 |    185662    |   210510
       11  | 46:46.61 |  6:23.39 |    210511    |   239274
Range status and errors
Selected range
     Filename D:\ilко\Dario Mollo's Crossbones - Rock The Cradle (Japan).wav
     Peak level 98.8 %
     Extraction speed 3.8 X
     Range quality 100.0 %
     Test CRC A311F990
     Copy CRC A311F990
     Copy OK
No errors occurred
AccurateRip summary
Track  1  not present in database
Track  2  not present in database
Track  3  not present in database
Track  4  not present in database
Track  5  not present in database
Track  6  not present in database
Track  7  not present in database
Track  8  not present in database
Track  9  not present in database
Track 10  not present in database
Track 11  not present in database
None of the tracks are present in the AccurateRip database
End of status report

Индексная карта (non-compilant .cue)

Код:
REM GENRE "Heavy Metal"
REM DATE 2016
REM DISCID A70C760B
REM COMMENT "ExactAudioCopy v1.3"
PERFORMER "Dario Mollo's Crossbones"
TITLE "Rock The Cradle (Japan)"
FILE "Dario Mollo's Crossbones - Rock The Cradle (Japan).flac" WAVE
  TRACK 01 AUDIO
    TITLE "Red"
    PERFORMER "Dario Mollo's Crossbones"
    INDEX 01 00:00:00
  TRACK 02 AUDIO
    TITLE "Take Me High"
    PERFORMER "Dario Mollo's Crossbones"
    INDEX 00 04:35:58
    INDEX 01 04:36:49
  TRACK 03 AUDIO
    TITLE "Navigation"
    PERFORMER "Dario Mollo's Crossbones"
    INDEX 01 08:46:08
  TRACK 04 AUDIO
    TITLE "Rock The Cradle"
    PERFORMER "Dario Mollo's Crossbones"
    INDEX 00 12:53:74
    INDEX 01 12:55:49
  TRACK 05 AUDIO
    TITLE "Gates Of Time"
    PERFORMER "Dario Mollo's Crossbones"
    INDEX 00 17:24:51
    INDEX 01 17:26:32
  TRACK 06 AUDIO
    TITLE "I Got This Feeling"
    PERFORMER "Dario Mollo's Crossbones"
    INDEX 00 23:50:16
    INDEX 01 23:50:56
  TRACK 07 AUDIO
    TITLE "In My Blood"
    PERFORMER "Dario Mollo's Crossbones"
    INDEX 00 28:03:14
    INDEX 01 28:05:39
  TRACK 08 AUDIO
    TITLE "Running From The Shadow"
    PERFORMER "Dario Mollo's Crossbones"
    INDEX 00 32:37:70
    INDEX 01 32:39:51
  TRACK 09 AUDIO
    TITLE "Speed"
    PERFORMER "Dario Mollo's Crossbones"
    INDEX 00 36:46:12
    INDEX 01 36:46:22
  TRACK 10 AUDIO
    TITLE "Fright"
    PERFORMER "Dario Mollo's Crossbones"
    INDEX 00 41:14:05
    INDEX 01 41:15:37
  TRACK 11 AUDIO
    TITLE "Gates Of Time (Orchestral Version) ( Bonus Track)"
    PERFORMER "Dario Mollo's Crossbones"
    INDEX 01 46:46:61
--

_________________
Разница между теорией и практикой в том, что теоретически разницы между теорией и практикой нет, а на практике она есть.
[Профиль] [ЛС]
Показать сообщения:    

Текущее время: Сегодня 23:24

Часовой пояс: GMT + 3



Вы не можете начинать темы
Вы не можете отвечать на сообщения
Вы не можете редактировать свои сообщения
Вы не можете удалять свои сообщения
Вы не можете голосовать в опросах
Вы не можете прикреплять файлы к сообщениям
Вы не можете скачивать файлы