Today is free to download without increasing Download
 

Offline

mickvip

Longevity:
5 years 6 months
Posts:
50

Грязь / Filth (2013) BDRip [1080p] ATV
«This Little Piggy went to town!»
- Год выпуска: 2013
Производство: Великобритания
Жанр: Криминал, драма, комедия
Продолжительность: 01:37:22
Перевод: Профессиональный (дублированный) (R5)
Оригинальная аудиодорожка: Есть
Cубтитры: Русские, Английские
Режиссер: Джон С. Бейрд
Сценарий: Джон С. Бейрд, Ирвин Уэлш
Продюсер: Марк Эмин, Кристиан Ангермейер, Джон С. Бейрд
Оператор: Мэттью Дженсен
Композитор: Клинт Мэнселл
Художник: Майк Ганн, Моли Кэмпбелл, Гай Сперанса
Монтаж: Марк Экерсли
Актеры: Джеймс МакЭвой, Джейми Белл, Эдди Марсан, Имоджен Путс, Брайан МакКарди, Иман Эллиотт, Гари Льюис, Джон Сешнс, Шона МакДональд, Джим Бродбент
Сборы в России: $1 319 173
Мировая премьера: 16 сентября 2013
Премьера (РФ): 28 ноября 2013, «Cinema Prestige»
Релиз на DVD: 20 февраля 2014, «Cinema Prestige»

Описание: Главный герой — продажный шотландский полицейский Брюс Робертсон, помешанный на сексе и кокаине. Ему бы надо расследовать убийство, но ему сильно мешают собственные странности, привычка разыгрывать коллег и беготня за девушками. За Робертсоном присматривают его напарник Рэй Леннокс и начальник Боб Тоал.-Качество исходника: BDRemux
Качество: BDRip
Тип: HD (1080p)
Контейнер: M4V
Видео: H.264, 1920x816, 2.35:1, 8 000 Kbps, 23.976 fps
Аудио 1: Русский/Профессиональный (дублированный) (R5), AAC / 2.0 / 156 Kbps / 48.0 KHz
Аудио 2: Английский/Оригинальная дорожка , AAC / 2.0 / 157 Kbps / 48.0 KHz
Аудио 3: Русский/Профессиональный (дублированный) (R5), AC-3 / 5.1 / 384 Kbps / 48.0 KHz
Аудио 4: Английский/Оригинальная дорожка , AC-3 / 5.1 / 640 Kbps / 48.0 KHz
Язык субтитров: Русский, Английский
Вид субтитров: Вшитые (полные, отключаемые)-

iTunes Meta Tags

Код:
Sort Name: Filth
XID: Apple:vendor_id:2013-467293
contentID: 744941489
Copyright: © 2013 Lithium Pictures LTD
Screenwriters: Джон С. Бейрд, Ирвин Уэлш
Producers: Марк Эмин, Кристиан Ангермейер, Джон С. Бейрд
Director: Джон С. Бейрд
Cast: Джеймс МакЭвой, Джейми Белл, Эдди Марсан, Джим Бродбент, Имоджен Путс, Шона МакДональд, Ширли Хендерсон, Джон Сессионс, Гари Льюис, Иман Эллиотт, Александр Носков, Александр Дасевич, Дмитрий Филимонов, Александр Воронов
Studio: Lionsgate
Rating: 39
Long Description: Главный герой - продажный шотландский полицейский Брюс Робертсон, помешанный на сексе и кокаине. Ему бы надо расследовать убийство, но ему сильно мешают собственные странности, привычка разыгрывать коллег и беготня за девушками. За Робертсоном присматривают его напарник Рэй Леннокс и начальник Боб Тоал.
Description: Главный герой - продажный шотландский полицейский Брюс Робертсон, помешанный на сексе и кокаине. Ему бы надо расследовать убийство, но ему сильно мешают собственные странности, привычка разыгрывать коллег и беготня за девушками. За Робертсоном присматривают его напарник Рэй Леннокс и начальник Боб Тоал.
Release Date: 2013-09-16T08:00:00Z
Genre: Comedy
Artist: Jon S. Baird
Name: Filth

MediaInfo

Код:
General
Complete name                            : /Users/imac/HandBrake/Filth (1080p HD).m4v
Format                                   : MPEG-4
Codec ID                                 : M4V
File size                                : 6.35 GiB
Duration                                 : 1h 37mn
Overall bit rate mode                    : Variable
Overall bit rate                         : 9 330 Kbps
Movie name                               : Filth
Performer                                : Jon S. Baird
Genre                                    : Comedy
Recorded date                            : UTC 2013-09-16 08:00:00
Encoded date                             : UTC 2014-11-11 09:34:53
Tagged date                              : UTC 2014-11-11 09:48:22
Copyright                                : © 2013 Lithium Pictures LTD
Cover                                    : Yes
sonm                                     : Filth
desc                                     : Главный герой - продажный шотландский полицейский Брюс Робертсон, помешанный на сексе и кокаине. Ему бы надо расследовать убийство, но ему сильно мешают собственные странности, привычка разыгрывать коллег и беготня за девушками. За Робертсоном присматривают его напарник Рэй Леннокс и начальник Боб Тоал.
ldes                                     : Главный герой - продажный шотландский полицейский Брюс Робертсон, помешанный на сексе и кокаине. Ему бы надо расследовать убийство, но ему сильно мешают собственные странности, привычка разыгрывать коллег и беготня за девушками. За Робертсоном присматривают его напарник Рэй Леннокс и начальник Боб Тоал.
hdvd                                     : 2
stik                                     : 9
rtng                                     : 0
cnID                                     : 744941489
xid                                      : Apple:vendor_id:2013-467293
iTunEXTC                                 : br-movie|18|400|
iTunMOVI                                 :  /  /  /  /   cast /    /      /       name /       Джеймс МакЭвой /      /      /       name /       Джейми Белл /      /      /       name /       Эдди Марсан /      /      /       name /       Джим Бродбент /      /      /       name /       Имоджен Путс /      /      /       name /       Шона МакДональд /      /      /       name /       Ширли Хендерсон /      /      /       name /       Джон Сессионс /      /      /       name /       Гари Льюис /      /      /       name /       Иман Эллиотт /      /      /       name /       Александр Носков /      /      /       name /       Александр Дасевич /      /      /       name /       Дмитрий Филимонов /      /      /       name /       Александр Воронов /      /    /   directors /    /      /       name /       Джон С. Бейрд /      /    /   producers /    /      /       name /       Марк Эмин /      /      /       name /       Кристиан Ангермейер /      /      /       name /       Джон С. Бейрд /      /    /   screenwriters /    /      /       name /       Джон С. Бейрд /      /      /       name /       Ирвин Уэлш /      /    /   studio /   Lionsgate /  /
Video #1
ID                                       : 1
Format                                   : AVC
Format/Info                              : Advanced Video Codec
Format profile                           : [url=mailto:High@L4.0]High@L4.0[/url]
Format settings, CABAC                   : Yes
Format settings, ReFrames                : 4 frames
Codec ID                                 : avc1
Codec ID/Info                            : Advanced Video Coding
Duration                                 : 1h 37mn
Bit rate mode                            : Variable
Bit rate                                 : 8 000 Kbps
Width                                    : 1 920 pixels
Height                                   : 816 pixels
Display aspect ratio                     : 2.35:1
Frame rate mode                          : Variable
Frame rate                               : 23.976 fps
Minimum frame rate                       : 23.810 fps
Maximum frame rate                       : 90 000.000 fps
Color space                              : YUV
Chroma subsampling                       : 4:2:0
Bit depth                                : 8 bits
Scan type                                : Progressive
Bits/(Pixel*Frame)                       : 0.213
Stream size                              : 5.43 GiB (86%)
Writing library                          : x264 core 130 r2273 b3065e6
Encoding settings                        : cabac=1 / ref=4 / deblock=1:0:0 / analyse=0x3:0x133 / me=umh / subme=10 / psy=1 / psy_rd=1.00:0.00 / mixed_ref=1 / me_range=32 / chroma_me=1 / trellis=2 / 8x8dct=1 / cqm=0 / deadzone=21,11 / fast_pskip=1 / chroma_qp_offset=-2 / threads=12 / lookahead_threads=1 / sliced_threads=0 / nr=0 / decimate=1 / interlaced=0 / bluray_compat=0 / constrained_intra=0 / bframes=4 / b_pyramid=2 / b_adapt=2 / b_bias=0 / direct=3 / weightb=1 / open_gop=0 / weightp=2 / keyint=240 / keyint_min=24 / scenecut=40 / intra_refresh=0 / rc_lookahead=40 / rc=2pass / mbtree=0 / bitrate=8000 / ratetol=1.0 / qcomp=0.60 / qpmin=0 / qpmax=69 / qpstep=4 / cplxblur=20.0 / qblur=0.5 / vbv_maxrate=25000 / vbv_bufsize=25000 / nal_hrd=none / ip_ratio=1.40 / pb_ratio=1.30 / aq=1:1.00
Language                                 : English
Encoded date                             : UTC 2014-11-11 09:34:53
Tagged date                              : UTC 2014-11-11 09:38:37
Color primaries                          : BT.709-5, BT.1361, IEC 61966-2-4, SMPTE RP177
Transfer characteristics                 : BT.709-5, BT.1361
Matrix coefficients                      : BT.709-5, BT.1361, IEC 61966-2-4 709, SMPTE RP177
Video #2
ID                                       : 9
Format                                   : JPEG
Codec ID                                 : jpeg
Duration                                 : 1h 37mn
Bit rate mode                            : Variable
Bit rate                                 : 677 bps
Width                                    : 640 pixels
Height                                   : 272 pixels
Display aspect ratio                     : 2.35:1
Frame rate mode                          : Variable
Frame rate                               : 0.002 fps
Minimum frame rate                       : 0.002 fps
Maximum frame rate                       : 0.003 fps
Color space                              : YUV
Chroma subsampling                       : 4:2:0
Bit depth                                : 8 bits
Compression mode                         : Lossy
Bits/(Pixel*Frame)                       : 1.945
Stream size                              : 496 KiB (0%)
Language                                 : English
Encoded date                             : UTC 2014-11-11 09:38:42
Tagged date                              : UTC 2014-11-11 09:38:43
Audio #1
ID                                       : 2
Format                                   : AAC
Format/Info                              : Advanced Audio Codec
Format profile                           : LC
Codec ID                                 : 40
Duration                                 : 1h 37mn
Bit rate mode                            : Variable
Bit rate                                 : 156 Kbps
Maximum bit rate                         : 238 Kbps
Channel(s)                               : 2 channels
Channel positions                        : Front: L R
Sampling rate                            : 48.0 KHz
Compression mode                         : Lossy
Stream size                              : 109 MiB (2%)
Language                                 : Russian
Encoded date                             : UTC 2014-11-11 09:34:53
Tagged date                              : UTC 2014-11-11 09:37:13
Audio #2
ID                                       : 3
Format                                   : AAC
Format/Info                              : Advanced Audio Codec
Format profile                           : LC
Codec ID                                 : 40
Duration                                 : 1h 37mn
Bit rate mode                            : Variable
Bit rate                                 : 157 Kbps
Maximum bit rate                         : 256 Kbps
Channel(s)                               : 2 channels
Channel positions                        : Front: L R
Sampling rate                            : 48.0 KHz
Compression mode                         : Lossy
Stream size                              : 110 MiB (2%)
Language                                 : English
Encoded date                             : UTC 2014-11-11 09:34:53
Tagged date                              : UTC 2014-11-11 09:35:09
Audio #3
ID                                       : 4
Format                                   : AC-3
Format/Info                              : Audio Coding 3
Mode extension                           : CM (complete main)
Format settings, Endianness              : Big
Codec ID                                 : ac-3
Duration                                 : 1h 37mn
Bit rate mode                            : Constant
Bit rate                                 : 384 Kbps
Channel(s)                               : 6 channels
Channel positions                        : Front: L C R, Side: L R, LFE
Sampling rate                            : 48.0 KHz
Bit depth                                : 16 bits
Compression mode                         : Lossy
Stream size                              : 267 MiB (4%)
Language                                 : Russian
Encoded date                             : UTC 2014-11-11 09:34:53
Tagged date                              : UTC 2014-11-11 09:35:26
Audio #4
ID                                       : 5
Format                                   : AC-3
Format/Info                              : Audio Coding 3
Mode extension                           : CM (complete main)
Format settings, Endianness              : Big
Codec ID                                 : ac-3
Duration                                 : 1h 37mn
Bit rate mode                            : Constant
Bit rate                                 : 640 Kbps
Channel(s)                               : 6 channels
Channel positions                        : Front: L C R, Side: L R, LFE
Sampling rate                            : 48.0 KHz
Bit depth                                : 16 bits
Compression mode                         : Lossy
Stream size                              : 446 MiB (7%)
Language                                 : English
Encoded date                             : UTC 2014-11-11 09:34:53
Tagged date                              : UTC 2014-11-11 09:35:08
Text #1
ID                                       : 6
Format                                   : Timed text
Muxing mode                              : sbtl
Codec ID                                 : tx3g
Duration                                 : 1h 31mn
Bit rate mode                            : Variable
Bit rate                                 : 121 bps
Stream size                              : 81.6 KiB (0%)
Language                                 : Russian
Encoded date                             : UTC 2014-11-11 09:34:53
Tagged date                              : UTC 2014-11-11 09:34:53
Text #2
ID                                       : 7
Format                                   : Timed text
Muxing mode                              : sbtl
Codec ID                                 : tx3g
Duration                                 : 1h 31mn
Bit rate mode                            : Variable
Bit rate                                 : 79 bps
Stream size                              : 53.0 KiB (0%)
Language                                 : English
Encoded date                             : UTC 2014-11-11 09:34:53
Tagged date                              : UTC 2014-11-11 09:34:53
Text #3
ID                                       : 8
Format                                   : Apple text
Codec ID                                 : text
Duration                                 : 1h 37mn
Bit rate mode                            : Variable
Bit rate                                 : 0 bps
Stream size                              : 279 Bytes (0%)
Language                                 : English
Encoded date                             : UTC 2014-11-11 09:38:37
Tagged date                              : UTC 2014-11-11 09:38:37
Menu
00:00:00.000                             : Chapter 1
00:08:15.620                             : Chapter 2
00:15:56.914                             : Chapter 3
00:24:38.768                             : Chapter 4
00:32:36.245                             : Chapter 5
00:40:56.035                             : Chapter 6
00:48:00.542                             : Chapter 7
00:56:09.113                             : Chapter 8
01:03:43.942                             : Chapter 9
01:14:07.815                             : Chapter 10
01:19:15.038                             : Chapter 11
01:28:19.248                             : Chapter 12

x264 лог

Код:
x264 [info]: frame I:1323  Avg QP:18.40  size:171868  PSNR Mean Y:45.69 U:46.97 V:48.51 Avg:46.23 Global:45.58
x264 [info]: frame P:34276 Avg QP:20.38  size: 70676  PSNR Mean Y:44.00 U:45.28 V:47.06 Avg:44.54 Global:43.49
x264 [info]: frame B:104477 Avg QP:22.27  size: 30424  PSNR Mean Y:42.58 U:43.98 V:46.16 Avg:43.17 Global:42.18
x264 [info]: consecutive B-frames:  1.9%  2.9% 11.7% 29.2% 54.3%
x264 [info]: mb I  I16..4: 12.6% 77.1% 10.3%
x264 [info]: mb P  I16..4:  2.3% 11.5%  0.5%  P16..4: 43.2% 20.4% 11.3%  0.1%  0.0%    skip:10.6%
x264 [info]: mb B  I16..4:  0.3%  0.8%  0.0%  B16..8: 50.6%  8.6%  1.9%  direct: 6.7%  skip:31.0%  L0:45.6% L1:49.7% BI: 4.7%
x264 [info]: 8x8 transform intra:77.8% inter:71.1%
x264 [info]: direct mvs  spatial:98.8% temporal:1.2%
x264 [info]: coded y,uvDC,uvAC intra: 80.7% 77.8% 58.7% inter: 34.4% 37.8% 14.1%
x264 [info]: i16 v,h,dc,p: 57% 14% 14% 14%
x264 [info]: i8 v,h,dc,ddl,ddr,vr,hd,vl,hu:  8%  6%  7% 12% 16% 15% 14% 12% 11%
x264 [info]: i4 v,h,dc,ddl,ddr,vr,hd,vl,hu: 11%  8%  7%  9% 14% 15% 13% 11% 12%
x264 [info]: i8c dc,h,v,p: 50% 16% 16% 17%
x264 [info]: Weighted P-Frames: Y:1.0% UV:0.5%
x264 [info]: ref P L0: 47.9% 10.7% 27.8% 12.3%  1.2%  0.0%
x264 [info]: ref B L0: 82.0% 14.0%  4.1%
x264 [info]: ref B L1: 89.9% 10.1%
x264 [info]: SSIM Mean Y:0.9589076 (13.862db)
x264 [info]: PSNR Mean Y:42.956 U:44.329 V:46.406 Avg:43.534 Global:42.486 kb/s:7981.09
Скриншоты: -

Релиз подготовлен для просмотра на Apple TV, iPad, iPhone, iPod Touch.
Для просмотра данного релиза на компьютере с ОС Windows рекомендуется использовать VLC media player


Last edited by mickvip on 2014-11-13 17:48; edited 1 time in total
[Profile] [PM]

Топик был перенесен из форума HD / Blu-Ray / BD-Remux / BDRip в форум Видео
Rammstein
 
Display posts from previous:    

The time now is: Today 22:51

All times are GMT + 3 Hours



You cannot post new topics in this forum
You cannot reply to topics in this forum
You cannot edit your posts in this forum
You cannot delete your posts in this forum
You cannot vote in polls in this forum
You cannot attach files in this forum
You cannot download files in this forum