Marco Mendoza - Viva La Rock


Год издания: 2018
Страна: USA
Жанр: Hard Rock
Продолжительность: 00:43:26
Лейбл издания: Ward Records Inc.; Chaos Reigns
Страна-выпуска диска: Japan
Номер по каталогу: GQCS-90538
Формат: FLAC
Битрейт аудио: Lossless
Тип рипа: image +.cue
Наличие сканов в содержимом раздачи: да

Трэклист


01. Viva La Rock (4:14)
02. Sue Is On The Run (3:58)
03. Rocketman (4:07)
04. Sweetest Emotions (3:53)
05. Chinatown (4:43)
06. Burned (4:06)
07. Love 2 U (4:40)
08. Leah (4:47)
09. Hey Baby (4:53)
10. Let It Flow (4:04)

Лог создания рипа

Код:
Exact Audio Copy V1.0 beta 6 from 9. April 2015
EAC extraction logfile from 27. July 2018, 8:37
Marco Mendoza / Viva La Rock
Used drive  : Optiarc DVD RW AD-7243S   Adapter: 2  ID: 0
Read mode               : Secure
Utilize accurate stream : Yes
Defeat audio cache      : Yes
Make use of C2 pointers : No
Read offset correction                      : 48
Overread into Lead-In and Lead-Out          : No
Fill up missing offset samples with silence : Yes
Delete leading and trailing silent blocks   : No
Null samples used in CRC calculations       : Yes
Used interface                              : Installed external ASPI interface
Used output format              : User Defined Encoder
Selected bitrate                : 768 kBit/s
Quality                         : High
Add ID3 tag                     : No
Command line compressor         : D:\Flac\flac-1.3.1-win\win64\flac.exe
Additional command line options :  -V -8 -T "Date=%year%" -T "Genre=%genre%" %source%
TOC of the extracted CD
     Track |   Start  |  Length  | Start sector | End sector
    ---------------------------------------------------------
        1  |  0:00.00 |  4:14.17 |         0    |    19066
        2  |  4:14.17 |  3:57.46 |     19067    |    36887
        3  |  8:11.63 |  4:07.29 |     36888    |    55441
        4  | 12:19.17 |  3:53.00 |     55442    |    72916
        5  | 16:12.17 |  4:42.71 |     72917    |    94137
        6  | 20:55.13 |  4:06.37 |     94138    |   112624
        7  | 25:01.50 |  4:40.01 |    112625    |   133625
        8  | 29:41.51 |  4:46.63 |    133626    |   155138
        9  | 34:28.39 |  4:53.14 |    155139    |   177127
       10  | 39:21.53 |  4:04.14 |    177128    |   195441
Range status and errors
Selected range
     Filename D:\Varvaar r\Marco Mendoza[2018]Viva La Rock (Japan-GQCS-90538)\Marco Mendoza - Viva La Rock.wav
     Peak level 100.0 %
     Extraction speed 3.7 X
     Range quality 99.9 %
     Test CRC 70A7C28C
     Copy CRC 70A7C28C
     Copy OK
No errors occurred
AccurateRip summary
Track  1  accurately ripped (confidence 2)  [697A6350]  (AR v2)
Track  2  accurately ripped (confidence 2)  [CFBE715D]  (AR v2)
Track  3  accurately ripped (confidence 2)  [3512AE0D]  (AR v2)
Track  4  accurately ripped (confidence 2)  [07737370]  (AR v2)
Track  5  accurately ripped (confidence 2)  [6B2DB5D4]  (AR v2)
Track  6  accurately ripped (confidence 2)  [70165913]  (AR v2)
Track  7  accurately ripped (confidence 2)  [9A3B8A79]  (AR v2)
Track  8  accurately ripped (confidence 2)  [8C8986BF]  (AR v2)
Track  9  accurately ripped (confidence 2)  [EE3306FF]  (AR v2)
Track 10  accurately ripped (confidence 2)  [3BE8EA7C]  (AR v2)
All tracks accurately ripped
End of status report

Индексная карта (non-compilant .cue)

Код:
REM GENRE "Hard Rock"
REM DATE 2018
REM DISCID 810A2D0A
REM COMMENT "ExactAudioCopy v1.0b6"
PERFORMER "Marco Mendoza"
TITLE "Viva La Rock"
FILE "Marco Mendoza - Viva La Rock.flac" WAVE
  TRACK 01 AUDIO
    TITLE "Viva La Rock"
    PERFORMER "Marco Mendoza"
    INDEX 01 00:00:00
  TRACK 02 AUDIO
    TITLE "Sue Is On The Run"
    PERFORMER "Marco Mendoza"
    INDEX 00 04:12:35
    INDEX 01 04:14:17
  TRACK 03 AUDIO
    TITLE "Rocketman"
    PERFORMER "Marco Mendoza"
    INDEX 00 08:10:06
    INDEX 01 08:11:63
  TRACK 04 AUDIO
    TITLE "Sweetest Emotions"
    PERFORMER "Marco Mendoza"
    INDEX 00 12:17:35
    INDEX 01 12:19:17
  TRACK 05 AUDIO
    TITLE "Chinatown"
    PERFORMER "Marco Mendoza"
    INDEX 00 16:10:35
    INDEX 01 16:12:17
  TRACK 06 AUDIO
    TITLE "Burned"
    PERFORMER "Marco Mendoza"
    INDEX 00 20:53:31
    INDEX 01 20:55:13
  TRACK 07 AUDIO
    TITLE "Love 2 U"
    PERFORMER "Marco Mendoza"
    INDEX 00 24:59:68
    INDEX 01 25:01:50
  TRACK 08 AUDIO
    TITLE "Leah"
    PERFORMER "Marco Mendoza"
    INDEX 00 29:39:69
    INDEX 01 29:41:51
  TRACK 09 AUDIO
    TITLE "Hey Baby"
    PERFORMER "Marco Mendoza"
    INDEX 00 34:26:57
    INDEX 01 34:28:39
  TRACK 10 AUDIO
    TITLE "Let It Flow"
    PERFORMER "Marco Mendoza"
    INDEX 00 39:19:71
    INDEX 01 39:21:53

для ознакомления:

https://www.youtube.com/watch?v=92CJ7C5ScVg