The Unity - Rise (Japanese Edition)


Год издания: 2018
Страна: Germany
Жанр: Power Metal
Продолжительность: 01:12:36
Лейбл издания: MICP-11438
Страна-выпуска диска: Japan
Номер по каталогу: AVALON
Формат: FLAC
Битрейт аудио: Lossless
Тип рипа: image +.cue
Наличие сканов в содержимом раздачи: да

Трэклист


01. Revenge (1:25)
02. Last Betrayal (4:19)
03. You Got Me Wrong (3:49)
04. The Storm (4:52)
05. Road To Nowhere (7:06)
06. Welcome Home (4:27)
07. Aaa That Is Real (4:00)
08. No Hero (5:17)
09. The Willow Tree (4:23)
10. Above Everything (3:52)
11. Children Of The Light (4:52)
12. Better Day (3:47)
13. L.I.F.E. (5:22)
14. No More Lies (Live) (Bonus Track) (5:00)
15. God Of Temptation (Live) (Bonus Track) (6:31)
16. Close To Crazy (Live) (Bonus Track) (3:34)

Лог создания рипа

Код:
Exact Audio Copy V1.3 from 2. September 2016
EAC extraction logfile from 7. September 2018, 13:48
The Unity / Rise (Japan)
Used drive  : ATAPI   iHAS122   W   Adapter: 2  ID: 0
Read mode               : Secure
Utilize accurate stream : Yes
Defeat audio cache      : Yes
Make use of C2 pointers : No
Read offset correction                      : 48
Overread into Lead-In and Lead-Out          : No
Fill up missing offset samples with silence : Yes
Delete leading and trailing silent blocks   : No
Null samples used in CRC calculations       : Yes
Used interface                              : Installed external ASPI interface
Used output format              : User Defined Encoder
Selected bitrate                : 1024 kBit/s
Quality                         : High
Add ID3 tag                     : No
Command line compressor         : C:\Program Files\FLAC\flac.exe
Additional command line options : -V -8 -T "Date=%year%" -T "Genre=%genre%" -T"COMMENT=Ripped by  Ilijan [MeTaLMaDNeSS.TeaM]" -8 -V %source%
TOC of the extracted CD
     Track |   Start  |  Length  | Start sector | End sector
    ---------------------------------------------------------
        1  |  0:00.00 |  1:25.20 |         0    |     6394
        2  |  1:25.20 |  4:19.04 |      6395    |    25823
        3  |  5:44.24 |  3:49.32 |     25824    |    43030
        4  |  9:33.56 |  4:52.34 |     43031    |    64964
        5  | 14:26.15 |  7:06.22 |     64965    |    96936
        6  | 21:32.37 |  4:26.54 |     96937    |   116940
        7  | 25:59.16 |  3:59.73 |    116941    |   134938
        8  | 29:59.14 |  5:17.03 |    134939    |   158716
        9  | 35:16.17 |  4:23.03 |    158717    |   178444
       10  | 39:39.20 |  3:52.12 |    178445    |   195856
       11  | 43:31.32 |  4:51.70 |    195857    |   217751
       12  | 48:23.27 |  3:46.38 |    217752    |   234739
       13  | 52:09.65 |  5:22.01 |    234740    |   258890
       14  | 57:31.66 |  4:59.40 |    258891    |   281355
       15  | 62:31.31 |  6:30.53 |    281356    |   310658
       16  | 69:02.09 |  3:34.06 |    310659    |   326714
Range status and errors
Selected range
     Filename D:\Vknish+Devastator+ungern666+g.y.m.+deminbek(angelito)=3.14дарасы (Upload On Rutracker, DIE!!!)\The Unity - Rise (Japan).wav
     Peak level 98.6 %
     Extraction speed 4.5 X
     Range quality 99.9 %
     Test CRC B18ACE41
     Copy CRC B18ACE41
     Copy OK
No errors occurred
AccurateRip summary
Track  1  not present in database
Track  2  not present in database
Track  3  not present in database
Track  4  not present in database
Track  5  not present in database
Track  6  not present in database
Track  7  not present in database
Track  8  not present in database
Track  9  not present in database
Track 10  not present in database
Track 11  not present in database
Track 12  not present in database
Track 13  not present in database
Track 14  not present in database
Track 15  not present in database
Track 16  not present in database
None of the tracks are present in the AccurateRip database
End of status report
---- CUETools DB Plugin V2.1.6

Индексная карта (non-compilant .cue)

Код:
REM GENRE "Power Metal"
REM DATE 2018
REM DISCID D8110410
REM COMMENT "ExactAudioCopy v1.3"
PERFORMER "The Unity"
TITLE "Rise (Japan)"
FILE "The Unity - Rise (Japan).flac" WAVE
  TRACK 01 AUDIO
    TITLE "Revenge"
    PERFORMER "The Unity"
    INDEX 01 00:00:00
  TRACK 02 AUDIO
    TITLE "Last Betrayal"
    PERFORMER "The Unity"
    INDEX 01 01:25:20
  TRACK 03 AUDIO
    TITLE "You Got Me Wrong"
    PERFORMER "The Unity"
    INDEX 01 05:44:24
  TRACK 04 AUDIO
    TITLE "The Storm"
    PERFORMER "The Unity"
    INDEX 01 09:33:56
  TRACK 05 AUDIO
    TITLE "Road To Nowhere"
    PERFORMER "The Unity"
    INDEX 01 14:26:15
  TRACK 06 AUDIO
    TITLE "Welcome Home"
    PERFORMER "The Unity"
    INDEX 01 21:32:37
  TRACK 07 AUDIO
    TITLE "Aaa That Is Real"
    PERFORMER "The Unity"
    INDEX 01 25:59:16
  TRACK 08 AUDIO
    TITLE "No Hero"
    PERFORMER "The Unity"
    INDEX 01 29:59:14
  TRACK 09 AUDIO
    TITLE "The Willow Tree"
    PERFORMER "The Unity"
    INDEX 01 35:16:17
  TRACK 10 AUDIO
    TITLE "Above Everything"
    PERFORMER "The Unity"
    INDEX 01 39:39:20
  TRACK 11 AUDIO
    TITLE "Children Of The Light"
    PERFORMER "The Unity"
    INDEX 01 43:31:32
  TRACK 12 AUDIO
    TITLE "Better Day"
    PERFORMER "The Unity"
    INDEX 01 48:23:27
  TRACK 13 AUDIO
    TITLE "L.I.F.E."
    PERFORMER "The Unity"
    INDEX 01 52:09:65
  TRACK 14 AUDIO
    TITLE "No More Lies (Live) (Bonus Track)"
    PERFORMER "The Unity"
    INDEX 00 57:29:66
    INDEX 01 57:31:66
  TRACK 15 AUDIO
    TITLE "God Of Temptation (Live) (Bonus Track)"
    PERFORMER "The Unity"
    INDEX 01 62:31:31
  TRACK 16 AUDIO
    TITLE "Close To Crazy (Live) (Bonus Track)"
    PERFORMER "The Unity"
    INDEX 01 69:02:09

для ознакомления:

https://www.youtube.com/watch?v=hysp06Rpbns