Кондор / Condor Сезон 1, Серия 1-8 из 10



Год выпуска: 2018
Выпущено: США, MGM Television, Alcon Entertainment, Sean Daniel Company
Жанр: Триллер
Продолжительность: 00:45:00
Сезон:1
Серия: 1--8
Количество серий в сезоне: 10

Озвучка 1: - Профессиональный многоголосый -Lostfilm- Русский
Озвучка2: Профессиональный многоголосый - ProfixMedia -Русский
Озвучка3: Профессиональный многоголосый - BaibaKО -Русский
Озвучка 4: Профессиональный многоголосый - NewStudiо -Русский
Озвучка 5: Профессиональный многоголосый - Jaskier -Русский
Озвучка 6: Профессиональный многоголосый - OMSKBIRD -Русский
Озвучка 7: Профессиональный двухголосый - Kubik V Kube -Русский
Озвучка 8: Профессиональный многоголосый - Английский - Оригинал
Субтитры: : English, English SDH

Официальный сайт
MDB [img]https://rating.kinopoisk.ru/1044830.gif[/img]

Режиссер: Эндрю МакКарти, Лоуренс Триллинг

В ролях: Макс Айронс, Лим Лубани, Кэтерин Каннингэм, Брендан Фрейзер, Кристина Моусес, Мона Траоре, Стив Белфорд, Кейт Вернон, Далмар Абузейд, Кэлвин Десотелс

В центре сюжета шпионского сериала «Кондор» находится молодой и невероятно амбициозный Джо Тернер. Являясь идеалистом, он старается все делать настолько хорошо, насколько это возможно. Главный герой прилагает максимум усилий для того, чтобы сделать этот мир лучше. По этой причине он проходит строгий отбор и поступает на службу в секретный отдел ЦРУ. Джо уверен, что здесь он сможет принести больше всего пользы. Но он и не подозревает, с чем ему придется столкнуться. Сразу же после вступления в должность начальство заявляет Джо, что он еще слишком молод для того, чтобы вести оперативную работу. Из-за отсутствия опыта его определяют в тот отдел, где ему приходится целыми днями заниматься заполнением бумаг и анализом полученной информации. Но после жестокой расправы над коллегами из его отдела Джо вынужден оставить свою прежнюю должность, чтобы начать битву с опасными врагами. Тернер оказывается в центре масштабного заговора. Теперь ему предстоит спасти не только себя, но и всю страну.



Качество :WEB-DLRip 1080p
Формат: MKV
Видео кодек: H264
Видео: 5823Кбит/сек,1920х1080(16.9),в 23.976кадр/сек,AVC (High@L4)(CABAC/4 Ref Frames)

Аудио Кодек:AC3
Аудио #1:AC3 640 Kbps, 48.0 KHz, 6 ch- Lostfilm -Русский
Аудио #2:AC3 , 384 Kbps, 48.0 KHz, 6 ch- ProfixMedia -Русский
Аудио #3:AC3 , 384 Kbps, 48.0 KHz, 6 ch- BaibaKО -Русский
Аудио #4:AC3 , 384 Kbps, 48.0 KHz, 6 ch-NewStudiо -Русский
Аудио #5:AC3 , 384 Kbps, 48.0 KHz, 6 ch-Jaskier -Русский
Аудио #6:AC3 , 384 Kbps, 48.0 KHz, 6 ch-OMSKBIRD -Русский
Аудио #7:AC3 , 384 Kbps, 48.0 KHz, 6 ch- Kubik V Kube -Русский
Аудио #8: AC3, 640 Kbps, 48.0 KHz,6 ch - - English - Оригинал

Доп. информация:

Звуковая дорожка сделана путем наложения чистого голоса озвучивателей на центральный канал оригинальной дорожки. Качество идентично звуковой дорожке.


Список эпизодов сезона


1 сезон 1 серия - Какое одиночество - What Loneliness
1 сезон 2 серия - Решение всех проблем - The Solution to All Problems
1 сезон 3 серия - Истинный патриот - A Good Patriot
1 сезон 4 серия - Пленники истории - Trapped in History
1 сезон 5 серия - По невиновности - From Innocence
1 сезон 6 серия - Не существует - No Such Thing
1 сезон 7 серия - В сумрачном лесу - Within a Dark Wood
1 сезон 8 серия -Вопрос компромисса - A Question of Compromise


MediaInfo сезона

Общее
Уникальный идентификатор : 52837441328957516718419939679984233676 (0x27C01EFCBDBDBD446EC7CD748E852CCC)
Полное имя : C:\Nikolai.Baranov & PIRATIYA\Кондор - Condor\CONDOR_S01_Н264_DD5.1_N.B_HD_1080_7xRus_Eng\Condor_S01E01_Н264_DD5.1_N.B_HD_1080_7xRus_Eng.mkv
Формат : Matroska
Версия формата : Version 4 / Version 2
Размер файла : 3,52 Гбайт
Продолжительность : 53 м. 33 с.
Общий поток : 9411 Кбит/сек
Название фильма : Condor S01E01 @ Nikolai.Baranov & PIRATIYA
Дата кодирования : UTC 2018-07-22 18:21:15
Программа кодирования : mkvmerge v25.0.0 ('Prog Noir') 64-bit
Библиотека кодирования : libebml v1.3.6 + libmatroska v1.4.9
Видео
Идентификатор : 1
Формат : AVC
Формат/Информация : Advanced Video Codec
Профиль формата : High@L4
Настройки формата : CABAC / 4 Ref Frames
Параметр CABAC формата : Да
Параметр RefFrames формата : 4 кадра
Идентификатор кодека : V_MPEG4/ISO/AVC
Продолжительность : 53 м. 33 с.
Битрейт : 5823 Кбит/сек
Ширина : 1920 пикселей
Высота : 1080 пикселей
Соотношение сторон : 16:9
Режим частоты кадров : Постоянный
Частота кадров : 23,976 (24000/1001) кадра/сек
Цветовое пространство : YUV
Субдискретизация насыщенности : 4:2:0
Битовая глубина : 8 бит
Тип развёртки : Прогрессивная
Бит/(Пиксели*Кадры) : 0.117
Размер потока : 2,18 Гбайт (62%)
Заголовок : Condor_S01E01_Н264_DD5.1_N.B_HD_1080_7xRus_Eng
Библиотека кодирования : Zencoder Video Encoding System
Язык : Russian
Default : Да
Forced : Нет
Цветовой диапазон : Limited
Основные цвета : BT.709
Характеристики трансфера : BT.709
Коэффициенты матрицы : BT.709
Аудио #1
Идентификатор : 4
Формат : AC-3
Формат/Информация : Audio Coding 3
Идентификатор кодека : A_AC3
Продолжительность : 53 м. 33 с.
Вид битрейта : Постоянный
Битрейт : 640 Кбит/сек
Каналы : 6 каналов
Расположение каналов : Front: L C R, Side: L R, LFE
Частота : 48,0 КГц
Частота кадров : 31,250 кадров/сек (1536 SPF)
Битовая глубина : 16 бит
Метод сжатия : С потерями
Размер потока : 245 Мбайт (7%)
Заголовок : MVO LostFilm @DD5.1 AC3, 640 Kbps, 48.0 KHz, 6 ch
Язык : Russian
ServiceKind/String : Complete Main
Default : Да
Forced : Нет
Аудио #2
Идентификатор : 5
Формат : AC-3
Формат/Информация : Audio Coding 3
Идентификатор кодека : A_AC3
Продолжительность : 53 м. 33 с.
Вид битрейта : Постоянный
Битрейт : 384 Кбит/сек
Каналы : 6 каналов
Расположение каналов : Front: L C R, Side: L R, LFE
Частота : 48,0 КГц
Частота кадров : 31,250 кадров/сек (1536 SPF)
Битовая глубина : 16 бит
Метод сжатия : С потерями
Размер потока : 147 Мбайт (4%)
Заголовок : MVO ProfixMedia @DD5.1 AC3, 384 Kbps, 48.0 KHz, 6 ch
Язык : Russian
ServiceKind/String : Complete Main
Default : Нет
Forced : Нет
Аудио #3
Идентификатор : 6
Формат : AC-3
Формат/Информация : Audio Coding 3
Идентификатор кодека : A_AC3
Продолжительность : 53 м. 33 с.
Вид битрейта : Постоянный
Битрейт : 384 Кбит/сек
Каналы : 6 каналов
Расположение каналов : Front: L C R, Side: L R, LFE
Частота : 48,0 КГц
Частота кадров : 31,250 кадров/сек (1536 SPF)
Битовая глубина : 16 бит
Метод сжатия : С потерями
Размер потока : 147 Мбайт (4%)
Заголовок : MVO Jaskier @DD5.1 AC3, 384 Kbps, 48.0 KHz, 6 ch
Язык : Russian
ServiceKind/String : Complete Main
Default : Нет
Forced : Нет
Аудио #4
Идентификатор : 7
Формат : AC-3
Формат/Информация : Audio Coding 3
Идентификатор кодека : A_AC3
Продолжительность : 53 м. 32 с.
Вид битрейта : Постоянный
Битрейт : 384 Кбит/сек
Каналы : 6 каналов
Расположение каналов : Front: L C R, Side: L R, LFE
Частота : 48,0 КГц
Частота кадров : 31,250 кадров/сек (1536 SPF)
Битовая глубина : 16 бит
Метод сжатия : С потерями
Размер потока : 147 Мбайт (4%)
Заголовок : MVO OMSKBIRD @DD5.1 AC3, 384 Kbps, 48.0 KHz, 6 ch
Язык : Russian
ServiceKind/String : Complete Main
Default : Нет
Forced : Нет
Аудио #5
Идентификатор : 8
Формат : AC-3
Формат/Информация : Audio Coding 3
Идентификатор кодека : A_AC3
Продолжительность : 53 м. 32 с.
Вид битрейта : Постоянный
Битрейт : 384 Кбит/сек
Каналы : 6 каналов
Расположение каналов : Front: L C R, Side: L R, LFE
Частота : 48,0 КГц
Частота кадров : 31,250 кадров/сек (1536 SPF)
Битовая глубина : 16 бит
Метод сжатия : С потерями
Размер потока : 147 Мбайт (4%)
Заголовок : MVO Baibako @DD5.1 AC3, 384 Kbps, 48.0 KHz, 6 ch
Язык : Russian
ServiceKind/String : Complete Main
Default : Нет
Forced : Нет
Аудио #6
Идентификатор : 9
Формат : AC-3
Формат/Информация : Audio Coding 3
Идентификатор кодека : A_AC3
Продолжительность : 53 м. 33 с.
Вид битрейта : Постоянный
Битрейт : 384 Кбит/сек
Каналы : 6 каналов
Расположение каналов : Front: L C R, Side: L R, LFE
Частота : 48,0 КГц
Частота кадров : 31,250 кадров/сек (1536 SPF)
Битовая глубина : 16 бит
Метод сжатия : С потерями
Размер потока : 147 Мбайт (4%)
Заголовок : MVO NewStudio @DD5.1 AC3, 384 Kbps, 48.0 KHz, 6 ch
Язык : Russian
ServiceKind/String : Complete Main
Default : Нет
Forced : Нет
Аудио #7
Идентификатор : 10
Формат : AC-3
Формат/Информация : Audio Coding 3
Идентификатор кодека : A_AC3
Продолжительность : 53 м. 33 с.
Вид битрейта : Постоянный
Битрейт : 384 Кбит/сек
Каналы : 6 каналов
Расположение каналов : Front: L C R, Side: L R, LFE
Частота : 48,0 КГц
Частота кадров : 31,250 кадров/сек (1536 SPF)
Битовая глубина : 16 бит
Метод сжатия : С потерями
Размер потока : 147 Мбайт (4%)
Заголовок : MVO Kubik v Kube @DD5.1 AC3, 384 Kbps, 48.0 KHz, 6 ch
Язык : Russian
ServiceKind/String : Complete Main
Default : Нет
Forced : Нет
Аудио #8
Идентификатор : 11
Формат : AC-3
Формат/Информация : Audio Coding 3
Идентификатор кодека : A_AC3
Продолжительность : 53 м. 33 с.
Вид битрейта : Постоянный
Битрейт : 640 Кбит/сек
Каналы : 6 каналов
Расположение каналов : Front: L C R, Side: L R, LFE
Частота : 48,0 КГц
Частота кадров : 31,250 кадров/сек (1536 SPF)
Битовая глубина : 16 бит
Метод сжатия : С потерями
Размер потока : 245 Мбайт (7%)
Заголовок : Original@DD5.1 AC3 ,640 Kbps, 48.0 KHz, 6 ch
Язык : Russian
ServiceKind/String : Complete Main
Default : Нет
Forced : Нет
Текст #1
Идентификатор : 2
Формат : UTF-8
Идентификатор кодека : S_TEXT/UTF8
Идентификатор кодека/Информация : UTF-8 Plain Text
Продолжительность : 51 м. 34 с.
Битрейт : 74 бит/сек
ElementCount : 824
Размер потока : 28,2 Кбайт (0%)
Заголовок : Original - SDH
Язык : English
Default : Да
Forced : Нет
Текст #2
Идентификатор : 3
Формат : UTF-8
Идентификатор кодека : S_TEXT/UTF8
Идентификатор кодека/Информация : UTF-8 Plain Text
Продолжительность : 49 м. 24 с.
Битрейт : 72 бит/сек
ElementCount : 753
Размер потока : 26,2 Кбайт (0%)
Заголовок : Original
Язык : English
Default : Нет
Forced : Нет
Меню
00:00:00.000 : en:Глава 01 / en:Глава 01 / en:Глава 01 / en:Глава 01 / en:Глава 01 / en:Глава 01 / en:Глава 01 / en:Глава 01 / en:Глава 01 / en:Глава 01 / en:Глава 01




Скриншоты

[


Сезон 1

Внимание! Раздача пополняется по мере выхода новых серий!

Внимание! Раздача ведётся путём добавления новых серий!

Раздача ведётся путём добавления новых серий; при каждом добавлении создётся новый торрент.
Чтобы начать докачку новой серии, пользователям необходимо сделать следующее:
1. остановить скачивание,
2. удалить старый торрент у себя из клиента (старые серии удалять не надо),
3. скачать новый торрент и запустить его у себя в клиенте вместо старого, при этом указать клиенту путь в старую папку, куда и должно происходить скачивание новых серий.
Ваш клиент при этом должен произвести хеширование (проверку) старой папки (если не производит сам - помогите ему сделать это), и будет докачивать только те серии которых у вас ещё нет. Старые серии при этом не удаляются, а продолжают раздаваться!
Eсли вы уже удалили старые серии, то предотвратить повторную закачку старых серий можно, отжав галочку в соответсвующих местах при запуске нового торрента. По возможности, желательно не удалять старые серии как можно дольше, чтобы релизёр не столько продолжал раздавать старые серии, а смог сконцентрироваться на новых.
Совет для тех, кто не хочет ждать перехеширования:
Создайте ещё одну папку рядом с папкой сериала (рядом, а не в ней!!!). Каждую новую серию после удачной загрузки копируйте в новую папку так чтобы ваша основная папка всегда была пуста. Когда ваш новый торрент предложит вам закачать все файлы, выберете только последнюю. Для сидирования же укажите адрес новой папки.
Как закачать отдельный файл из торрента или докачать ранее пропущенные файлы торрента!

Как закачать отдельный файл

1. Открыть торрент
2. Снять галки с тех файлов торрента, которые мы не хотим закачивать. Оставляем только на нужных нам файлах (файле).
3. Нажать О.К.
В клиенте utorrent
Инструкция
1) Открыть торрент

2) Снять галки с тех файлов торрента, которые мы не хотим закачивать:
* либо вручную, снимая с каждого файла галку( скрин №1)
* либо, нажав кнопку "Снять метки (Select None)", сняв сразу со всех файлов(скрин №2)
№1

№2

Оставляем только на нужных нам файлах (файле).

3)Нажать О.К






Внимание!!! 08.08. 2018. РАЗДАЧА ОБНОВЛЕНА. ДОБАВЛЕНА 8СЕРИЯ. ОБНОВИТЕ ТОРЕНТ ФАЙЛ. ПРИЯТНОГО ПРОСМОТРА .

Релиз от: Nikolai.Baranov & PIRATIYA







Время раздачи : 24/7