Frozen Crown - The Fallen King (Japanese Edition)


Год издания: 2018
Страна: Italy
Жанр: Power Metal
Продолжительность: 00:48:50
Лейбл издания: Avalon
Страна-выпуска диска: Japan
Номер по каталогу: MICP 11393
Формат: FLAC
Битрейт аудио: Lossless
Тип рипа: image +.cue
Наличие сканов в содержимом раздачи: да

Трэклист


01. Fail No More (4:10)
02. To Infinity (4:11)
03. Kings (4:07)
04. I Am The Tyrant (4:49)
05. The Shieldmaiden (5:51)
06. Chasing Lights (4:48)
07. Queen Of Blades (4:19)
08. Across The Sea (4:46)
09. Everwinter (3:39)
10. Netherstorm (3:56)
11. The Shieldmaiden (Live Acoustic Version) (Bonus Track) (4:15)

Лог создания рипа

Код:
Exact Audio Copy V1.3 from 2. September 2016
EAC extraction logfile from 5. February 2018, 12:54
Frozen Crown / The Fallen King (Japan)
Used drive  : ATAPI   iHAS122   W   Adapter: 2  ID: 0
Read mode               : Secure
Utilize accurate stream : Yes
Defeat audio cache      : Yes
Make use of C2 pointers : No
Read offset correction                      : 48
Overread into Lead-In and Lead-Out          : No
Fill up missing offset samples with silence : Yes
Delete leading and trailing silent blocks   : No
Null samples used in CRC calculations       : Yes
Used interface                              : Installed external ASPI interface
Used output format              : User Defined Encoder
Selected bitrate                : 1024 kBit/s
Quality                         : High
Add ID3 tag                     : No
Command line compressor         : C:\Program Files\FLAC\flac.exe
Additional command line options : -V -8 -T "Date=%year%" -T "Genre=%genre%" -T"COMMENT=Ripped by  Ilijan [MeTaLMaDNeSS.TeaM]" -8 -V %source%
TOC of the extracted CD
     Track |   Start  |  Length  | Start sector | End sector
    ---------------------------------------------------------
        1  |  0:00.00 |  4:09.70 |         0    |    18744
        2  |  4:09.70 |  4:11.34 |     18745    |    37603
        3  |  8:21.29 |  4:07.07 |     37604    |    56135
        4  | 12:28.36 |  4:48.62 |     56136    |    77797
        5  | 17:17.23 |  5:50.44 |     77798    |   104091
        6  | 23:07.67 |  4:47.69 |    104092    |   125685
        7  | 27:55.61 |  4:19.32 |    125686    |   145142
        8  | 32:15.18 |  4:45.46 |    145143    |   166563
        9  | 37:00.64 |  3:38.44 |    166564    |   182957
       10  | 40:39.33 |  3:55.54 |    182958    |   200636
       11  | 44:35.12 |  4:15.00 |    200637    |   219761
Range status and errors
Selected range
     Filename D:\Vknish + Devastator + ungern666 = Swolo4 (Download, Upload On Rutracker, DIE!!!)\Frozen Crown - The Fallen King (Japan).wav
     Peak level 100.0 %
     Extraction speed 3.7 X
     Range quality 100.0 %
     Test CRC 0B767ACF
     Copy CRC 0B767ACF
     Copy OK
No errors occurred
AccurateRip summary
Track  1  not present in database
Track  2  not present in database
Track  3  not present in database
Track  4  not present in database
Track  5  not present in database
Track  6  not present in database
Track  7  not present in database
Track  8  not present in database
Track  9  not present in database
Track 10  not present in database
Track 11  not present in database
None of the tracks are present in the AccurateRip database
End of status report

Индексная карта (non-compilant .cue)

Код:
REM GENRE "Power Metal"
REM DATE 2018
REM DISCID 920B720B
REM COMMENT "ExactAudioCopy v1.3"
PERFORMER "Frozen Crown"
TITLE "The Fallen King (Japan)"
FILE "Frozen Crown - The Fallen King (Japan).flac" WAVE
  TRACK 01 AUDIO
    TITLE "Fail No More"
    PERFORMER "Frozen Crown"
    INDEX 01 00:00:00
  TRACK 02 AUDIO
    TITLE "To Infinity"
    PERFORMER "Frozen Crown"
    INDEX 01 04:09:70
  TRACK 03 AUDIO
    TITLE "Kings"
    PERFORMER "Frozen Crown"
    INDEX 01 08:21:29
  TRACK 04 AUDIO
    TITLE "I Am The Tyrant"
    PERFORMER "Frozen Crown"
    INDEX 01 12:28:36
  TRACK 05 AUDIO
    TITLE "The Shieldmaiden"
    PERFORMER "Frozen Crown"
    INDEX 01 17:17:23
  TRACK 06 AUDIO
    TITLE "Chasing Lights"
    PERFORMER "Frozen Crown"
    INDEX 01 23:07:67
  TRACK 07 AUDIO
    TITLE "Queen Of Blades"
    PERFORMER "Frozen Crown"
    INDEX 01 27:55:61
  TRACK 08 AUDIO
    TITLE "Across The Sea"
    PERFORMER "Frozen Crown"
    INDEX 01 32:15:18
  TRACK 09 AUDIO
    TITLE "Everwinter"
    PERFORMER "Frozen Crown"
    INDEX 01 37:00:64
  TRACK 10 AUDIO
    TITLE "Netherstorm"
    PERFORMER "Frozen Crown"
    INDEX 01 40:39:33
  TRACK 11 AUDIO
    TITLE "The Shieldmaiden (Live Acoustic Version) (Bonus Track)"
    PERFORMER "Frozen Crown"
    INDEX 00 44:33:12
    INDEX 01 44:35:12

для ознакомления:

https://www.youtube.com/watch?v=yUtMHL_TeaQ
https://www.youtube.com/watch?v=yfmfViBMYJE