ELO - Box Set Collection 2000-2011 (23 СD)

Страна: UK
Жанр: Rock,Classic Rock,Progressive
Год выпуска: 2000 - 2011
Формат: FLAC (image + .cue)
Битрейт аудио: lossless
Продолжительность: 23:42:27
Наличие сканов в содержимом раздачи: да

О том, где Джефф Линн родился, крестился, учился, женился и разводился вам вполне квалифицированно расскажут отличные статьи из официальных и неофициальных биографий самого Джеффа и его музыкальных проектов, из которых, безусловно, самым важным и известным по праву считается The Electric Light Orchestra.

2000 - Flachback (3CD)



продолжительность: 03:33:35

2000 - Flashback CD 1


продолжительность: 01:08:51

01. 10538 Overture (05:31)
02. Showdown (04:12)
03. Ma-Ma-Ma Belle (03:55)
04. Mr. Radio (05:03)
05. Roll Over Beethoven (07:48)
06. Mama (new edit) (04:06)
07. One Summer Dream (05:21)
08. Illusions in G Major (02:41)
09. Strange Magic (04:29)
10. Eldorado Overture (02:12)
11. Can't Get It Out Of My Head (04:24)
12. Eldorado (05:18)
13. Eldorado Finale (01:29)
14. Do Ya (alternative mix) (04:09)
15. Mister Kingdom (05:08)
16. Grieg's Piano Concerto in A Minor (02:58)

лог создания рипа

Код:
Exact Audio Copy V0.99 prebeta 3 from 28. July 2007
Отчёт EAC об извлечении, выполненном 7. мая 2008, 16:07
Electric Light Orchestra / Flashback (Disc 1)
Дисковод: HL-DT-STDVDRAM GSA-E40N   Adapter: 2  ID: 0
Режим чтения                 : Достоверность
Использование точного потока : Да
Отключение кэша аудио        : Да
Использование указателей C2  : Нет
Коррекция смещения при чтении                     : 667
Способность читать области Lead-in и Lead-out     : Нет
Заполнение пропущенных сэмплов тишиной            : Да
Удаление блоков с тишиной в начале и конце        : Нет
При вычислениях CRC использовались нулевые сэмплы : Да
Интерфейс                                         : Встроенный Win32-интерфейс для Win NT/2000
Выходной формат          : Пользовательский кодировщик
Выбранный битрейт        : 768 kBit/s
Качество                 : Высокий
Добавление ID3-тэга      : Нет
Утилита сжатия           : C:\Program Files\Exact Audio Copy\FLAC\FLAC.EXE
Дополнительные параметры : -6 -V -T "ARTIST=%a" -T "TITLE=%t" -T "ALBUM=%g" -T "DATE=%y" -T "TRACKNUMBER=%n" -T "GENRE=%m" -T "COMMENT=%e" %s -o %d
TOC извлечённого CD
     Трек |   Старт  | Длительность | Начальный сектор | Конечный сектор
    ---------------------------------------------------------------------
       1  |  0:00.00 |    5:31.37   |           0      |      24861
       2  |  5:31.37 |    4:12.43   |       24862      |      43804
       3  |  9:44.05 |    3:55.12   |       43805      |      61441
       4  | 13:39.17 |    5:03.25   |       61442      |      84191
       5  | 18:42.42 |    7:48.45   |       84192      |     119336
       6  | 26:31.12 |    4:06.00   |      119337      |     137786
       7  | 30:37.12 |    5:21.13   |      137787      |     161874
       8  | 35:58.25 |    2:41.45   |      161875      |     173994
       9  | 38:39.70 |    4:29.25   |      173995      |     194194
      10  | 43:09.20 |    2:12.35   |      194195      |     204129
      11  | 45:21.55 |    4:24.72   |      204130      |     224001
      12  | 49:46.52 |    5:18.10   |      224002      |     247861
      13  | 55:04.62 |    1:29.65   |      247862      |     254601
      14  | 56:34.52 |    4:09.58   |      254602      |     273334
      15  | 60:44.35 |    5:08.45   |      273335      |     296479
      16  | 65:53.05 |    2:58.67   |      296480      |     309896
Характеристики диапазона извлечения и сообщения об ошибках
Выбранный диапазон
     Имя файла D:\Музыка\Torrents\Flashback\Electric Light Orchestra - Flashback (Disc 1).wav
     Пиковый уровень 100.0 %
     Качество диапазона 100.0 %
     CRC копии 899304F3
     Копирование... OK
Ошибок не произошло
Конец отчёта

содержание индексной карты *cue

Код:
REM GENRE Rock
REM DATE 2000
REM DISCID ED102310
REM COMMENT "ExactAudioCopy v0.99pb3"
PERFORMER "Electric Light Orchestra"
TITLE "Flashback (Disc 1)"
FILE "Flashback (Disc 1).flac" WAVE
  TRACK 01 AUDIO
    TITLE "10538 Overture"
    PERFORMER "Electric Light Orchestra"
    INDEX 01 00:00:00
  TRACK 02 AUDIO
    TITLE "Showdown"
    PERFORMER "Electric Light Orchestra"
    INDEX 01 05:31:37
  TRACK 03 AUDIO
    TITLE "Ma-Ma-Ma Belle"
    PERFORMER "Electric Light Orchestra"
    INDEX 00 09:44:00
    INDEX 01 09:44:05
  TRACK 04 AUDIO
    TITLE "Mr. Radio"
    PERFORMER "Electric Light Orchestra"
    INDEX 01 13:39:17
  TRACK 05 AUDIO
    TITLE "Roll Over Beethoven"
    PERFORMER "Electric Light Orchestra"
    INDEX 01 18:42:42
  TRACK 06 AUDIO
    TITLE "Mama (new edit)"
    PERFORMER "Electric Light Orchestra"
    INDEX 01 26:31:12
  TRACK 07 AUDIO
    TITLE "One Summer Dream"
    PERFORMER "Electric Light Orchestra"
    INDEX 01 30:37:12
  TRACK 08 AUDIO
    TITLE "Illusions in G Major"
    PERFORMER "Electric Light Orchestra"
    INDEX 01 35:58:25
  TRACK 09 AUDIO
    TITLE "Strange Magic"
    PERFORMER "Electric Light Orchestra"
    INDEX 01 38:39:70
  TRACK 10 AUDIO
    TITLE "Eldorado Overture"
    PERFORMER "Electric Light Orchestra"
    INDEX 01 43:09:20
  TRACK 11 AUDIO
    TITLE "Can't Get It Out Of My Head"
    PERFORMER "Electric Light Orchestra"
    INDEX 00 45:21:47
    INDEX 01 45:21:55
  TRACK 12 AUDIO
    TITLE "Eldorado"
    PERFORMER "Electric Light Orchestra"
    INDEX 01 49:46:52
  TRACK 13 AUDIO
    TITLE "Eldorado Finale"
    PERFORMER "Electric Light Orchestra"
    INDEX 00 55:04:55
    INDEX 01 55:04:62
  TRACK 14 AUDIO
    TITLE "Do Ya (alternative mix)"
    PERFORMER "Electric Light Orchestra"
    INDEX 01 56:34:52
  TRACK 15 AUDIO
    TITLE "Mister Kingdom"
    PERFORMER "Electric Light Orchestra"
    INDEX 01 60:44:35
  TRACK 16 AUDIO
    TITLE "Grieg's Piano Concerto in A Minor"
    PERFORMER "Electric Light Orchestra"
    INDEX 01 65:53:05

2000 - Flashback CD 2


продолжительность: 01:11:00

01. Tightrope (05:23)
02. Evil Woman (04:19)
03. Livin' Thing (03:33)
04. Mr. Blue Sky (05:07)
05. Mission (04:31)
06. Turn To Stone (03:49)
07. Telephone Line (04:45)
08. Rockaria (03:14)
09. Starlight (04:45)
10. It's Over (03:55)
11. The Whale (05:06)
12. Sweet Talkin' Woman (03:49)
13. Big Wheels (05:32)
14. Shangri-La (05:36)
15. Nightrider (04:24)
16. Tears In Your Life (03:05)

лог создания рипа

Код:
Exact Audio Copy V0.99 prebeta 3 from 28. July 2007
Отчёт EAC об извлечении, выполненном 7. мая 2008, 16:25
Electric Light Orchestra / Flashback (Disc 2)
Дисковод: HL-DT-STDVDRAM GSA-E40N   Adapter: 2  ID: 0
Режим чтения                 : Достоверность
Использование точного потока : Да
Отключение кэша аудио        : Да
Использование указателей C2  : Нет
Коррекция смещения при чтении                     : 667
Способность читать области Lead-in и Lead-out     : Нет
Заполнение пропущенных сэмплов тишиной            : Да
Удаление блоков с тишиной в начале и конце        : Нет
При вычислениях CRC использовались нулевые сэмплы : Да
Интерфейс                                         : Встроенный Win32-интерфейс для Win NT/2000
Выходной формат          : Пользовательский кодировщик
Выбранный битрейт        : 768 kBit/s
Качество                 : Высокий
Добавление ID3-тэга      : Нет
Утилита сжатия           : C:\Program Files\Exact Audio Copy\FLAC\FLAC.EXE
Дополнительные параметры : -6 -V -T "ARTIST=%a" -T "TITLE=%t" -T "ALBUM=%g" -T "DATE=%y" -T "TRACKNUMBER=%n" -T "GENRE=%m" -T "COMMENT=%e" %s -o %d
TOC извлечённого CD
     Трек |   Старт  | Длительность | Начальный сектор | Конечный сектор
    ---------------------------------------------------------------------
       1  |  0:00.00 |    5:23.02   |           0      |      24226
       2  |  5:23.02 |    4:19.65   |       24227      |      43716
       3  |  9:42.67 |    3:33.65   |       43717      |      59756
       4  | 13:16.57 |    5:07.10   |       59757      |      82791
       5  | 18:23.67 |    4:31.18   |       82792      |     103134
       6  | 22:55.10 |    3:49.10   |      103135      |     120319
       7  | 26:44.20 |    4:45.20   |      120320      |     141714
       8  | 31:29.40 |    3:14.60   |      141715      |     156324
       9  | 34:44.25 |    4:45.42   |      156325      |     177741
      10  | 39:29.67 |    3:55.43   |      177742      |     195409
      11  | 43:25.35 |    5:06.52   |      195410      |     218411
      12  | 48:32.12 |    3:49.15   |      218412      |     235601
      13  | 52:21.27 |    5:32.40   |      235602      |     260541
      14  | 57:53.67 |    5:36.38   |      260542      |     285779
      15  | 63:30.30 |    4:24.40   |      285780      |     305619
      16  | 67:54.70 |    3:06.00   |      305620      |     319569
Характеристики диапазона извлечения и сообщения об ошибках
Выбранный диапазон
     Имя файла D:\Музыка\Torrents\Flashback\Electric Light Orchestra - Flashback (Disc 2).wav
     Пиковый уровень 100.0 %
     Качество диапазона 100.0 %
     CRC копии 20F7B4A3
     Копирование... OK
Ошибок не произошло
Конец отчёта

содержание индексной карты *cue

Код:
REM GENRE Rock
REM DATE 2000
REM DISCID E710A410
REM COMMENT "ExactAudioCopy v0.99pb3"
PERFORMER "Electric Light Orchestra"
TITLE "Flashback (Disc 2)"
FILE "Flashback (Disc 2).flac" WAVE
  TRACK 01 AUDIO
    TITLE "Tightrope"
    PERFORMER "Electric Light Orchestra"
    INDEX 01 00:00:00
  TRACK 02 AUDIO
    TITLE "Evil Woman"
    PERFORMER "Electric Light Orchestra"
    INDEX 01 05:23:02
  TRACK 03 AUDIO
    TITLE "Livin' Thing"
    PERFORMER "Electric Light Orchestra"
    INDEX 01 09:42:67
  TRACK 04 AUDIO
    TITLE "Mr. Blue Sky"
    PERFORMER "Electric Light Orchestra"
    INDEX 01 13:16:57
  TRACK 05 AUDIO
    TITLE "Mission"
    PERFORMER "Electric Light Orchestra"
    INDEX 00 18:22:45
    INDEX 01 18:23:67
  TRACK 06 AUDIO
    TITLE "Turn To Stone"
    PERFORMER "Electric Light Orchestra"
    INDEX 00 22:52:02
    INDEX 01 22:55:10
  TRACK 07 AUDIO
    TITLE "Telephone Line"
    PERFORMER "Electric Light Orchestra"
    INDEX 01 26:44:20
  TRACK 08 AUDIO
    TITLE "Rockaria"
    PERFORMER "Electric Light Orchestra"
    INDEX 01 31:29:40
  TRACK 09 AUDIO
    TITLE "Starlight"
    PERFORMER "Electric Light Orchestra"
    INDEX 00 34:42:70
    INDEX 01 34:44:25
  TRACK 10 AUDIO
    TITLE "It's Over"
    PERFORMER "Electric Light Orchestra"
    INDEX 01 39:29:67
  TRACK 11 AUDIO
    TITLE "The Whale"
    PERFORMER "Electric Light Orchestra"
    INDEX 01 43:25:35
  TRACK 12 AUDIO
    TITLE "Sweet Talkin' Woman"
    PERFORMER "Electric Light Orchestra"
    INDEX 00 48:30:42
    INDEX 01 48:32:12
  TRACK 13 AUDIO
    TITLE "Big Wheels"
    PERFORMER "Electric Light Orchestra"
    INDEX 00 52:20:15
    INDEX 01 52:21:27
  TRACK 14 AUDIO
    TITLE "Shangri-La"
    PERFORMER "Electric Light Orchestra"
    INDEX 00 57:52:47
    INDEX 01 57:53:67
  TRACK 15 AUDIO
    TITLE "Nightrider"
    PERFORMER "Electric Light Orchestra"
    INDEX 01 63:30:30
  TRACK 16 AUDIO
    TITLE "Tears In Your Life"
    PERFORMER "Electric Light Orchestra"
    INDEX 00 67:53:05
    INDEX 01 67:54:70

2000 - Flashback CD 3


продолжительность: 01:13:42

01. Don't Bring Me Down (04:05)
02. The Diary of Horace Wimp (04:17)
03. Twilight (03:43)
04. Secret Messages (04:38)
05. Take Me On and On (04:58)
06. Shine a Little Love (04:11)
07. Rock and Roll is King (03:15)
08. Last Train to London (04:31)
09. Confusion (03:40)
10. Getting to the Point (04:51)
11. Hold On Tight (03:07)
12. So Serious (02:43)
13. Calling America (03:26)
14. Four Little Diamonds (04:06)
15. Great Balls of Fire (live at long beach auditorium 740512) (03:06)
16. Xanadu (new flashback version) (03:21)
17. Indian Queen (1973 demo, previously unreleased) (00:57)
18. Love Changes All (previously unreleased) (03:28)
19. After All (02:24)
20. Helpless (previously unreleased) (03:19)
21. Who's That (previously unreleased) (01:26)

лог создания рипа

Код:
Exact Audio Copy V0.99 prebeta 3 from 28. July 2007
Отчёт EAC об извлечении, выполненном 7. мая 2008, 16:39
Electric Light Orchestra / Flashback (Disc 3)
Дисковод: HL-DT-STDVDRAM GSA-E40N   Adapter: 2  ID: 0
Режим чтения                 : Достоверность
Использование точного потока : Да
Отключение кэша аудио        : Да
Использование указателей C2  : Нет
Коррекция смещения при чтении                     : 667
Способность читать области Lead-in и Lead-out     : Нет
Заполнение пропущенных сэмплов тишиной            : Да
Удаление блоков с тишиной в начале и конце        : Нет
При вычислениях CRC использовались нулевые сэмплы : Да
Интерфейс                                         : Встроенный Win32-интерфейс для Win NT/2000
Выходной формат          : Пользовательский кодировщик
Выбранный битрейт        : 768 kBit/s
Качество                 : Высокий
Добавление ID3-тэга      : Нет
Утилита сжатия           : C:\Program Files\Exact Audio Copy\FLAC\FLAC.EXE
Дополнительные параметры : -6 -V -T "ARTIST=%a" -T "TITLE=%t" -T "ALBUM=%g" -T "DATE=%y" -T "TRACKNUMBER=%n" -T "GENRE=%m" -T "COMMENT=%e" %s -o %d
TOC извлечённого CD
     Трек |   Старт  | Длительность | Начальный сектор | Конечный сектор
    ---------------------------------------------------------------------
       1  |  0:00.00 |    4:05.07   |           0      |      18381
       2  |  4:05.07 |    4:17.23   |       18382      |      37679
       3  |  8:22.30 |    3:43.05   |       37680      |      54409
       4  | 12:05.35 |    4:38.35   |       54410      |      75294
       5  | 16:43.70 |    4:58.37   |       75295      |      97681
       6  | 21:42.32 |    4:11.30   |       97682      |     116536
       7  | 25:53.62 |    3:15.53   |      116537      |     131214
       8  | 29:09.40 |    4:31.45   |      131215      |     151584
       9  | 33:41.10 |    3:40.37   |      151585      |     168121
      10  | 37:21.47 |    4:51.55   |      168122      |     190001
      11  | 42:13.27 |    3:07.68   |      190002      |     204094
      12  | 45:21.20 |    2:43.60   |      204095      |     216379
      13  | 48:05.05 |    3:26.70   |      216380      |     231899
      14  | 51:32.00 |    4:06.27   |      231900      |     250376
      15  | 55:38.27 |    3:06.20   |      250377      |     264346
      16  | 58:44.47 |    3:21.70   |      264347      |     279491
      17  | 62:06.42 |    0:57.33   |      279492      |     283799
      18  | 63:04.00 |    3:28.07   |      283800      |     299406
      19  | 66:32.07 |    2:24.53   |      299407      |     310259
      20  | 68:56.60 |    3:19.50   |      310260      |     325234
      21  | 72:16.35 |    1:26.32   |      325235      |     331716
Характеристики диапазона извлечения и сообщения об ошибках
Выбранный диапазон
     Имя файла D:\Музыка\Torrents\Flashback\Electric Light Orchestra - Flashback (Disc 3).wav
     Пиковый уровень 100.0 %
     Качество диапазона 100.0 %
     CRC копии 5439A671
     Копирование... OK
Ошибок не произошло
Конец отчёта

содержание индексной карты *cue

Код:
REM GENRE Rock
REM DATE 2000
REM DISCID 2E114615
REM COMMENT "ExactAudioCopy v0.99pb3"
PERFORMER "Electric Light Orchestra"
TITLE "Flashback (Disc 3)"
FILE "Flashback (Disc 3).flac" WAVE
  TRACK 01 AUDIO
    TITLE "Don't Bring Me Down"
    PERFORMER "Electric Light Orchestra"
    INDEX 01 00:00:00
  TRACK 02 AUDIO
    TITLE "The Diary of Horace Wimp"
    PERFORMER "Electric Light Orchestra"
    INDEX 00 04:03:47
    INDEX 01 04:05:07
  TRACK 03 AUDIO
    TITLE "Twilight"
    PERFORMER "Electric Light Orchestra"
    INDEX 00 08:20:67
    INDEX 01 08:22:30
  TRACK 04 AUDIO
    TITLE "Secret Messages"
    PERFORMER "Electric Light Orchestra"
    INDEX 01 12:05:35
  TRACK 05 AUDIO
    TITLE "Take Me On and On"
    PERFORMER "Electric Light Orchestra"
    INDEX 00 16:41:40
    INDEX 01 16:43:70
  TRACK 06 AUDIO
    TITLE "Shine a Little Love"
    PERFORMER "Electric Light Orchestra"
    INDEX 01 21:42:32
  TRACK 07 AUDIO
    TITLE "Rock and Roll is King"
    PERFORMER "Electric Light Orchestra"
    INDEX 01 25:53:62
  TRACK 08 AUDIO
    TITLE "Last Train to London"
    PERFORMER "Electric Light Orchestra"
    INDEX 00 29:03:02
    INDEX 01 29:09:40
  TRACK 09 AUDIO
    TITLE "Confusion"
    PERFORMER "Electric Light Orchestra"
    INDEX 01 33:41:10
  TRACK 10 AUDIO
    TITLE "Getting to the Point"
    PERFORMER "Electric Light Orchestra"
    INDEX 00 37:20:05
    INDEX 01 37:21:47
  TRACK 11 AUDIO
    TITLE "Hold On Tight"
    PERFORMER "Electric Light Orchestra"
    INDEX 00 42:13:12
    INDEX 01 42:13:27
  TRACK 12 AUDIO
    TITLE "So Serious"
    PERFORMER "Electric Light Orchestra"
    INDEX 01 45:21:20
  TRACK 13 AUDIO
    TITLE "Calling America"
    PERFORMER "Electric Light Orchestra"
    INDEX 01 48:05:05
  TRACK 14 AUDIO
    TITLE "Four Little Diamonds"
    PERFORMER "Electric Light Orchestra"
    INDEX 01 51:32:00
  TRACK 15 AUDIO
    TITLE "Great Balls of Fire (live at long beach auditorium 740512)"
    PERFORMER "Electric Light Orchestra"
    INDEX 01 55:38:27
  TRACK 16 AUDIO
    TITLE "Xanadu (new flashback version)"
    PERFORMER "Electric Light Orchestra"
    INDEX 01 58:44:47
  TRACK 17 AUDIO
    TITLE "Indian Queen (1973 demo, previously unreleased)"
    PERFORMER "Electric Light Orchestra"
    INDEX 01 62:06:42
  TRACK 18 AUDIO
    TITLE "Love Changes All (previously unreleased)"
    PERFORMER "Electric Light Orchestra"
    INDEX 01 63:04:00
  TRACK 19 AUDIO
    TITLE "After All"
    PERFORMER "Electric Light Orchestra"
    INDEX 00 66:30:37
    INDEX 01 66:32:07
  TRACK 20 AUDIO
    TITLE "Helpless (previously unreleased)"
    PERFORMER "Electric Light Orchestra"
    INDEX 00 68:55:02
    INDEX 01 68:56:60
  TRACK 21 AUDIO
    TITLE "Who's That (previously unreleased)"
    PERFORMER "Electric Light Orchestra"
    INDEX 00 72:15:30
    INDEX 01 72:16:35

2010 - Original Album Classics (5 CD)



продолжительность: 04:27:36

1973 - On The Third Day (CD 1)


продолжительность: 00:57:34

01. Ocean Breakup/King Of The Universe (04:07)
02. Bluebird Is Dead (04:42)
03. Oh No Not Susan (03:07)
04. New World Rising/Ocean Breakup [Reprise] (04:05)
05. Showdown (04:09)
06. Daybreaker (03:51)
07. Ma-Ma-Ma Belle (03:56)
08. Dreaming Of 4000 (05:04)
09. In The Hall Of The Mountain King (06:37)
10. Auntie (Ma-Ma-Ma Belle) [Take 1] (01:19)
11. Auntie (Ma-Ma-Ma Belle) [Take 2] (04:05)
12. Mambo (Dreaming Of 4000) (Alternate Mix) (05:05)
13. Everyone's Born To Die (03:43)
14. Interludes (03:40)

лог создания рипа

Код:
Exact Audio Copy V1.0 beta 3 from 29. August 2011
Отчёт EAC об извлечении, выполненном 4. ноября 2011, 19:53
ELO / On The Third Day
Дисковод: Optiarc DVD RW AD-7283S   Adapter: 4  ID: 0
Режим чтения                 : Достоверность
Использование точного потока : Да
Отключение кэша аудио        : Да
Использование указателей C2  : Нет
Коррекция смещения при чтении                     : 48
Способность читать области Lead-in и Lead-out     : Нет
Заполнение пропущенных сэмплов тишиной            : Да
Удаление блоков с тишиной в начале и конце        : Нет
При вычислениях CRC использовались нулевые сэмплы : Да
Интерфейс                                         : Установленный внешний ASPI-интерфейс
Выходной формат : Внутренние WAV-операции
Формат сэмплов  : 44.100 Гц; 16 бит; стерео
TOC извлечённого CD
     Трек |   Старт  | Длительность | Начальный сектор | Конечный сектор
    ---------------------------------------------------------------------
       1  |  0:00.00 |    4:07.05   |           0      |      18529
       2  |  4:07.05 |    4:42.58   |       18530      |      39737
       3  |  8:49.63 |    3:07.15   |       39738      |      53777
       4  | 11:57.03 |    4:05.05   |       53778      |      72157
       5  | 16:02.08 |    4:09.17   |       72158      |      90849
       6  | 20:11.25 |    3:51.26   |       90850      |     108200
       7  | 24:02.51 |    3:56.47   |      108201      |     125947
       8  | 27:59.23 |    5:04.27   |      125948      |     148774
       9  | 33:03.50 |    6:37.51   |      148775      |     178600
      10  | 39:41.26 |    1:19.15   |      178601      |     184540
      11  | 41:00.41 |    4:05.08   |      184541      |     202923
      12  | 45:05.49 |    5:05.12   |      202924      |     225810
      13  | 50:10.61 |    3:43.30   |      225811      |     242565
      14  | 53:54.16 |    3:40.43   |      242566      |     259108
Характеристики диапазона извлечения и сообщения об ошибках
Выбранный диапазон
     Имя файла C:\Users\Толик\Desktop\E.L.O. (Original Album Classics) 2010\ELO - On The Third Day.wav
     Пиковый уровень 99.9 %
     Скорость извлечения 4.0 X
     Качество диапазона 99.9 %
     CRC теста C0DEE605
     CRC копии C0DEE605
     Копирование... OK
Ошибок не произошло
AccurateRip: сводка
Трек  1  : извлечено точно (доверие 4)  [27CE893E]  (AR v1)
Трек  2  : извлечено точно (доверие 4)  [149FBEBC]  (AR v1)
Трек  3  : извлечено точно (доверие 4)  [81249AFF]  (AR v1)
Трек  4  : извлечено точно (доверие 4)  [6463EB7B]  (AR v1)
Трек  5  : извлечено точно (доверие 4)  [498D743F]  (AR v1)
Трек  6  : извлечено точно (доверие 4)  [8BA0C875]  (AR v1)
Трек  7  : извлечено точно (доверие 4)  [D5453DE2]  (AR v1)
Трек  8  : извлечено точно (доверие 4)  [0916AB8F]  (AR v1)
Трек  9  : извлечено точно (доверие 4)  [75759552]  (AR v1)
Трек 10  : извлечено точно (доверие 4)  [6890E034]  (AR v1)
Трек 11  : извлечено точно (доверие 4)  [0879E25E]  (AR v1)
Трек 12  : извлечено точно (доверие 4)  [F2370AED]  (AR v1)
Трек 13  : извлечено точно (доверие 4)  [F967E9DB]  (AR v1)
Трек 14  : извлечено точно (доверие 4)  [E278009A]  (AR v1)
Все треки извлечены точно
Конец отчёта

содержание индексной карты *cue

Код:
REM GENRE Rock
REM DATE 1973
REM DISCID BB0D7E0E
REM COMMENT "ExactAudioCopy v1.0b3"
CATALOG 0886977873423
PERFORMER "ELO"
TITLE "On The Third Day"
FILE "ELO - On The Third Day.flac" WAVE
  TRACK 01 AUDIO
    TITLE "Ocean Breakup/King Of The Universe"
    PERFORMER "ELO"
    ISRC USSM19804809
    INDEX 01 00:00:00
  TRACK 02 AUDIO
    TITLE "Bluebird Is Dead"
    PERFORMER "ELO"
    ISRC USSM19805090
    INDEX 01 04:07:05
  TRACK 03 AUDIO
    TITLE "Oh No Not Susan"
    PERFORMER "ELO"
    ISRC USSM10601010
    INDEX 01 08:49:63
  TRACK 04 AUDIO
    TITLE "New World Rising/Ocean Breakup [Reprise]"
    PERFORMER "ELO"
    ISRC USSM10601011
    INDEX 01 11:57:03
  TRACK 05 AUDIO
    TITLE "Showdown"
    PERFORMER "ELO"
    ISRC USBMG0701151
    INDEX 01 16:02:08
  TRACK 06 AUDIO
    TITLE "Daybreaker"
    PERFORMER "ELO"
    ISRC USSM10019613
    INDEX 01 20:11:25
  TRACK 07 AUDIO
    TITLE "Ma-Ma-Ma Belle"
    PERFORMER "ELO"
    ISRC USSM19805099
    INDEX 01 24:02:51
  TRACK 08 AUDIO
    TITLE "Dreaming Of 4000"
    PERFORMER "ELO"
    ISRC USSM19805100
    INDEX 01 27:59:23
  TRACK 09 AUDIO
    TITLE "In The Hall Of The Mountain King"
    PERFORMER "ELO"
    ISRC USSM19805101
    INDEX 01 33:03:50
  TRACK 10 AUDIO
    TITLE "Auntie (Ma-Ma-Ma Belle) [Take 1]"
    PERFORMER "ELO"
    ISRC USSM10601012
    INDEX 00 39:36:45
    INDEX 01 39:41:26
  TRACK 11 AUDIO
    TITLE "Auntie (Ma-Ma-Ma Belle) [Take 2]"
    PERFORMER "ELO"
    ISRC USSM10601013
    INDEX 01 41:00:41
  TRACK 12 AUDIO
    TITLE "Mambo (Dreaming Of 4000) (Alternate Mix)"
    PERFORMER "ELO"
    ISRC USSM10601014
    INDEX 00 45:02:67
    INDEX 01 45:05:49
  TRACK 13 AUDIO
    TITLE "Everyone's Born To Die"
    PERFORMER "ELO"
    ISRC USSM10601015
    INDEX 00 50:08:41
    INDEX 01 50:10:61
  TRACK 14 AUDIO
    TITLE "Interludes"
    PERFORMER "ELO"
    ISRC USSM10601016
    INDEX 00 53:51:35
    INDEX 01 53:54:16

1975 - Face The Music (CD 2)


продолжительность: 00:52:33

01. Fire On High (05:31)
02. Waterfall (04:11)
03. Evil Woman (04:29)
04. Nightrider (04:26)
05. Poker (03:32)
06. Strange Magic (04:29)
07. Down Home Town (03:54)
08. One Summer Dream (05:51)
09. Fire On High Intro (Early Alternate Mix) (03:23)
10. Evil Woman (Stripped Down Mix) (05:00)
11. Strange Magic (U.S. Single Edit) (03:27)
12. Waterfall (Instrumental Mix) (04:15)

лог создания рипа

Код:
Exact Audio Copy V1.0 beta 3 from 29. August 2011
Отчёт EAC об извлечении, выполненном 4. ноября 2011, 20:25
ELO / Face The Music
Дисковод: Optiarc DVD RW AD-7283S   Adapter: 4  ID: 0
Режим чтения                 : Достоверность
Использование точного потока : Да
Отключение кэша аудио        : Да
Использование указателей C2  : Нет
Коррекция смещения при чтении                     : 48
Способность читать области Lead-in и Lead-out     : Нет
Заполнение пропущенных сэмплов тишиной            : Да
Удаление блоков с тишиной в начале и конце        : Нет
При вычислениях CRC использовались нулевые сэмплы : Да
Интерфейс                                         : Установленный внешний ASPI-интерфейс
Выходной формат : Внутренние WAV-операции
Формат сэмплов  : 44.100 Гц; 16 бит; стерео
TOC извлечённого CD
     Трек |   Старт  | Длительность | Начальный сектор | Конечный сектор
    ---------------------------------------------------------------------
       1  |  0:00.00 |    5:31.43   |           0      |      24867
       2  |  5:31.43 |    4:11.57   |       24868      |      43749
       3  |  9:43.25 |    4:29.63   |       43750      |      63987
       4  | 14:13.13 |    4:26.12   |       63988      |      83949
       5  | 18:39.25 |    3:32.36   |       83950      |      99885
       6  | 22:11.61 |    4:29.47   |       99886      |     120107
       7  | 26:41.33 |    3:54.64   |      120108      |     137721
       8  | 30:36.22 |    5:51.01   |      137722      |     164047
       9  | 36:27.23 |    3:23.23   |      164048      |     179295
      10  | 39:50.46 |    5:00.13   |      179296      |     201808
      11  | 44:50.59 |    3:27.63   |      201809      |     217396
      12  | 48:18.47 |    4:15.12   |      217397      |     236533
Характеристики диапазона извлечения и сообщения об ошибках
Выбранный диапазон
     Имя файла C:\Users\Толик\Desktop\E.L.O. (Original Album Classics) 2010\ELO - Face The Music.wav
     Пиковый уровень 100.0 %
     Скорость извлечения 3.9 X
     Качество диапазона 100.0 %
     CRC теста A949148A
     CRC копии A949148A
     Копирование... OK
Ошибок не произошло
AccurateRip: сводка
Трек  1  : извлечено точно (доверие 5)  [1ACAD729]  (AR v1)
Трек  2  : извлечено точно (доверие 5)  [61A91C31]  (AR v1)
Трек  3  : извлечено точно (доверие 5)  [FEC0A702]  (AR v1)
Трек  4  : извлечено точно (доверие 5)  [D7AA0809]  (AR v1)
Трек  5  : извлечено точно (доверие 5)  [86049F44]  (AR v1)
Трек  6  : извлечено точно (доверие 5)  [FF8A4DA8]  (AR v1)
Трек  7  : извлечено точно (доверие 5)  [8B3C8712]  (AR v1)
Трек  8  : извлечено точно (доверие 5)  [1A45F77A]  (AR v1)
Трек  9  : извлечено точно (доверие 5)  [0CF0520F]  (AR v1)
Трек 10  : извлечено точно (доверие 5)  [1B325F3E]  (AR v1)
Трек 11  : извлечено точно (доверие 5)  [101E7810]  (AR v1)
Трек 12  : извлечено точно (доверие 5)  [2EAEF423]  (AR v1)
Все треки извлечены точно
Конец отчёта

содержание индексной карты *cue

Код:
REM GENRE Rock
REM DATE 1975
REM DISCID 9E0C510C
REM COMMENT "ExactAudioCopy v1.0b3"
CATALOG 0886977873423
PERFORMER "ELO"
TITLE "Face The Music  "
FILE "ELO - Face The Music.flac" WAVE
  TRACK 01 AUDIO
    TITLE "Fire On High"
    PERFORMER "ELO"
    ISRC USSM10600993
    INDEX 01 00:00:00
  TRACK 02 AUDIO
    TITLE "Waterfall"
    PERFORMER "ELO"
    ISRC USSM10104977
    INDEX 01 05:31:43
  TRACK 03 AUDIO
    TITLE "Evil Woman"
    PERFORMER "ELO"
    ISRC USSM10600994
    INDEX 01 09:43:25
  TRACK 04 AUDIO
    TITLE "Nightrider"
    PERFORMER "ELO"
    ISRC USSM10015748
    INDEX 01 14:13:13
  TRACK 05 AUDIO
    TITLE "Poker"
    PERFORMER "ELO"
    ISRC USSM10104978
    INDEX 01 18:39:25
  TRACK 06 AUDIO
    TITLE "Strange Magic"
    PERFORMER "ELO"
    ISRC USSM10015730
    INDEX 01 22:11:61
  TRACK 07 AUDIO
    TITLE "Down Home Town"
    PERFORMER "ELO"
    ISRC USSM10600995
    INDEX 01 26:41:33
  TRACK 08 AUDIO
    TITLE "One Summer Dream"
    PERFORMER "ELO"
    ISRC USSM10600996
    INDEX 01 30:36:22
  TRACK 09 AUDIO
    TITLE "Fire On High Intro (Early Alternate Mix)"
    PERFORMER "ELO"
    ISRC USSM10600997
    INDEX 00 36:22:41
    INDEX 01 36:27:23
  TRACK 10 AUDIO
    TITLE "Evil Woman (Stripped Down Mix)"
    PERFORMER "ELO"
    ISRC USSM10600998
    INDEX 00 39:47:64
    INDEX 01 39:50:46
  TRACK 11 AUDIO
    TITLE "Strange Magic (U.S. Single Edit)"
    PERFORMER "ELO"
    ISRC USSM10600999
    INDEX 00 44:48:02
    INDEX 01 44:50:59
  TRACK 12 AUDIO
    TITLE "Waterfall (Instrumental Mix)"
    PERFORMER "ELO"
    ISRC USSM10601000
    INDEX 00 48:15:65
    INDEX 01 48:18:47

1976 - A New World Record (CD 3)


продолжительность: 00:59:12

01. Tightrope (05:06)
02. Telephone Line (04:40)
03. Rockaria! (03:12)
04. Mission (A World Record) (04:25)
05. So Fine (03:55)
06. Livin' Thing (03:32)
07. Above The Clouds (02:17)
08. Do Ya (03:45)
09. Shangri-La (05:40)
10. Telephone Line (Different Vocal) (04:41)
11. Surrender (02:37)
12. Tightrope (Instrumental Early Rough Mix) (04:55)
13. Above the Clouds (Instrumental Rough Mix) (01:14)
14. So Fine (Instrumental Early Rough Mix) (04:16)
15. Telephone Line (Instrumental) (04:51)

лог создания рипа

Код:
Exact Audio Copy V1.0 beta 3 from 29. August 2011
Отчёт EAC об извлечении, выполненном 4. ноября 2011, 21:08
ELO / A New World Record
Дисковод: Optiarc DVD RW AD-7283S   Adapter: 4  ID: 0
Режим чтения                 : Достоверность
Использование точного потока : Да
Отключение кэша аудио        : Да
Использование указателей C2  : Нет
Коррекция смещения при чтении                     : 48
Способность читать области Lead-in и Lead-out     : Нет
Заполнение пропущенных сэмплов тишиной            : Да
Удаление блоков с тишиной в начале и конце        : Нет
При вычислениях CRC использовались нулевые сэмплы : Да
Интерфейс                                         : Установленный внешний ASPI-интерфейс
Выходной формат : Внутренние WAV-операции
Формат сэмплов  : 44.100 Гц; 16 бит; стерео
TOC извлечённого CD
     Трек |   Старт  | Длительность | Начальный сектор | Конечный сектор
    ---------------------------------------------------------------------
       1  |  0:00.00 |    5:06.06   |           0      |      22955
       2  |  5:06.06 |    4:40.27   |       22956      |      43982
       3  |  9:46.33 |    3:12.63   |       43983      |      58445
       4  | 12:59.21 |    4:25.56   |       58446      |      78376
       5  | 17:25.02 |    3:55.34   |       78377      |      96035
       6  | 21:20.36 |    3:32.23   |       96036      |     111958
       7  | 24:52.59 |    2:17.07   |      111959      |     122240
       8  | 27:09.66 |    3:45.08   |      122241      |     139123
       9  | 30:54.74 |    5:40.09   |      139124      |     164632
      10  | 36:35.08 |    4:41.34   |      164633      |     185741
      11  | 41:16.42 |    2:37.36   |      185742      |     197552
      12  | 43:54.03 |    4:55.40   |      197553      |     219717
      13  | 48:49.43 |    1:14.57   |      219718      |     225324
      14  | 50:04.25 |    4:16.28   |      225325      |     244552
      15  | 54:20.53 |    4:51.30   |      244553      |     266407
Характеристики диапазона извлечения и сообщения об ошибках
Выбранный диапазон
     Имя файла C:\Users\Толик\Desktop\E.L.O. (Original Album Classics) 2010\ELO - A New World Record.wav
     Пиковый уровень 100.0 %
     Скорость извлечения 4.0 X
     Качество диапазона 99.9 %
     CRC теста 140F09B2
     CRC копии 140F09B2
     Копирование... OK
Ошибок не произошло
AccurateRip: сводка
Трек  1  : извлечено точно (доверие 4)  [38022E32]  (AR v1)
Трек  2  : извлечено точно (доверие 4)  [0BDEA45F]  (AR v1)
Трек  3  : извлечено точно (доверие 4)  [0E74AA8C]  (AR v1)
Трек  4  : извлечено точно (доверие 4)  [CCA89EAB]  (AR v1)
Трек  5  : извлечено точно (доверие 4)  [A8D27233]  (AR v1)
Трек  6  : извлечено точно (доверие 4)  [73171EC6]  (AR v1)
Трек  7  : извлечено точно (доверие 4)  [BBB889D7]  (AR v1)
Трек  8  : извлечено точно (доверие 4)  [8555F8D0]  (AR v1)
Трек  9  : извлечено точно (доверие 4)  [541C6D48]  (AR v1)
Трек 10  : извлечено точно (доверие 4)  [78D32850]  (AR v1)
Трек 11  : извлечено точно (доверие 4)  [ECB04D42]  (AR v1)
Трек 12  : извлечено точно (доверие 4)  [09FD13BA]  (AR v1)
Трек 13  : извлечено точно (доверие 4)  [E0C1A253]  (AR v1)
Трек 14  : извлечено точно (доверие 4)  [EA44B4B8]  (AR v1)
Трек 15  : извлечено точно (доверие 4)  [FB61715C]  (AR v1)
Все треки извлечены точно
Конец отчёта

содержание индексной карты *cue

Код:
REM GENRE Rock
REM DATE 1976
REM DISCID DA0DE00F
REM COMMENT "ExactAudioCopy v1.0b3"
CATALOG 0886977873423
PERFORMER "ELO"
TITLE "A New World Record             "
FILE "ELO - A New World Record.flac" WAVE
  TRACK 01 AUDIO
    TITLE "Tightrope"
    PERFORMER "ELO"
    ISRC USSM17800849
    INDEX 01 00:00:00
  TRACK 02 AUDIO
    TITLE "Telephone Line"
    PERFORMER "ELO"
    ISRC USSM18600411
    INDEX 01 05:06:06
  TRACK 03 AUDIO
    TITLE "Rockaria!"
    PERFORMER "ELO"
    ISRC USSM17800850
    INDEX 01 09:46:33
  TRACK 04 AUDIO
    TITLE "Mission (A World Record)"
    PERFORMER "ELO"
    ISRC USSM17800851
    INDEX 01 12:59:21
  TRACK 05 AUDIO
    TITLE "So Fine"
    PERFORMER "ELO"
    ISRC USSM17800852
    INDEX 01 17:25:02
  TRACK 06 AUDIO
    TITLE "Livin' Thing"
    PERFORMER "ELO"
    ISRC USSM17800853
    INDEX 01 21:20:36
  TRACK 07 AUDIO
    TITLE "Above The Clouds"
    PERFORMER "ELO"
    ISRC USSM17800854
    INDEX 01 24:52:59
  TRACK 08 AUDIO
    TITLE "Do Ya"
    PERFORMER "ELO"
    ISRC USSM17800855
    INDEX 01 27:09:66
  TRACK 09 AUDIO
    TITLE "Shangri-La"
    PERFORMER "ELO"
    ISRC USSM17800856
    INDEX 01 30:54:74
  TRACK 10 AUDIO
    TITLE "Telephone Line (Different Vocal)"
    PERFORMER "ELO"
    ISRC USSM10601002
    INDEX 00 36:30:26
    INDEX 01 36:35:08
  TRACK 11 AUDIO
    TITLE "Surrender"
    PERFORMER "ELO"
    ISRC USSM10601003
    INDEX 00 41:14:59
    INDEX 01 41:16:42
  TRACK 12 AUDIO
    TITLE "Tightrope (Instrumental Early Rough Mix)"
    PERFORMER "ELO"
    ISRC USSM10601175
    INDEX 00 43:51:00
    INDEX 01 43:54:03
  TRACK 13 AUDIO
    TITLE "Above the Clouds (Instrumental Rough Mix)"
    PERFORMER "ELO"
    ISRC USSM10601005
    INDEX 00 48:46:62
    INDEX 01 48:49:43
  TRACK 14 AUDIO
    TITLE "So Fine (Instrumental Early Rough Mix)"
    PERFORMER "ELO"
    ISRC USSM10601006
    INDEX 00 50:01:44
    INDEX 01 50:04:25
  TRACK 15 AUDIO
    TITLE "Telephone Line (Instrumental)"
    PERFORMER "ELO"
    ISRC USSM10601007
    INDEX 00 54:17:71
    INDEX 01 54:20:53

1979 - Discovery (CD 4)


продолжительность: 00:43:39

01. Shine A Little Love (04:42)
02. Confusion (03:42)
03. Need Her Love (05:11)
04. The Diary Of Horace Wimp (04:17)
05. Last Train To London (04:31)
06. Midnight Blue (04:19)
07. On The Run (03:55)
08. Wishing (04:13)
09. Don't Bring Me Down (04:06)
10. On The Run (Home Demo) (01:01)
11. Second Time Around (Home Demo) (00:43)
12. Little Town Flirt (02:53)

лог создания рипа

Код:
Exact Audio Copy V1.0 beta 3 from 29. August 2011
Отчёт EAC об извлечении, выполненном 4. ноября 2011, 22:02
ELO / Discovery
Дисковод: Optiarc DVD RW AD-7283S   Adapter: 4  ID: 0
Режим чтения                 : Достоверность
Использование точного потока : Да
Отключение кэша аудио        : Да
Использование указателей C2  : Нет
Коррекция смещения при чтении                     : 48
Способность читать области Lead-in и Lead-out     : Нет
Заполнение пропущенных сэмплов тишиной            : Да
Удаление блоков с тишиной в начале и конце        : Нет
При вычислениях CRC использовались нулевые сэмплы : Да
Интерфейс                                         : Установленный внешний ASPI-интерфейс
Выходной формат : Внутренние WAV-операции
Формат сэмплов  : 44.100 Гц; 16 бит; стерео
TOC извлечённого CD
     Трек |   Старт  | Длительность | Начальный сектор | Конечный сектор
    ---------------------------------------------------------------------
       1  |  0:00.00 |    4:42.50   |           0      |      21199
       2  |  4:42.50 |    3:42.45   |       21200      |      37894
       3  |  8:25.20 |    5:11.70   |       37895      |      61289
       4  | 13:37.15 |    4:17.72   |       61290      |      80636
       5  | 17:55.12 |    4:31.23   |       80637      |     100984
       6  | 22:26.35 |    4:19.12   |      100985      |     120421
       7  | 26:45.47 |    3:55.65   |      120422      |     138111
       8  | 30:41.37 |    4:13.50   |      138112      |     157136
       9  | 34:55.12 |    4:06.30   |      157137      |     175616
      10  | 39:01.42 |    1:01.33   |      175617      |     180224
      11  | 40:03.00 |    0:43.30   |      180225      |     183479
      12  | 40:46.30 |    2:53.27   |      183480      |     196481
Характеристики диапазона извлечения и сообщения об ошибках
Выбранный диапазон
     Имя файла C:\Users\Толик\Desktop\E.L.O. (Original Album Classics) 2010\ELO - Discovery.wav
     Пиковый уровень 99.8 %
     Скорость извлечения 3.7 X
     Качество диапазона 100.0 %
     CRC теста 2019DD8B
     CRC копии 2019DD8B
     Копирование... OK
Ошибок не произошло
AccurateRip: сводка
Трек  1  : извлечено точно (доверие 3)  [10E368E3]  (AR v1)
Трек  2  : извлечено точно (доверие 3)  [8EDB6AC0]  (AR v1)
Трек  3  : извлечено точно (доверие 3)  [5573546F]  (AR v1)
Трек  4  : извлечено точно (доверие 3)  [8E8BAFD8]  (AR v1)
Трек  5  : извлечено точно (доверие 3)  [073D9C41]  (AR v1)
Трек  6  : извлечено точно (доверие 3)  [6414DE1D]  (AR v1)
Трек  7  : извлечено точно (доверие 3)  [1C6436C5]  (AR v1)
Трек  8  : извлечено точно (доверие 3)  [1B543614]  (AR v1)
Трек  9  : извлечено точно (доверие 3)  [BC8FDFD0]  (AR v1)
Трек 10  : извлечено точно (доверие 3)  [AD161EF5]  (AR v1)
Трек 11  : извлечено точно (доверие 3)  [07EA7AD4]  (AR v1)
Трек 12  : извлечено точно (доверие 3)  [FAB13BF4]  (AR v1)
Все треки извлечены точно
Конец отчёта

содержание индексной карты *cue

Код:
REM GENRE Rock
REM DATE 1979
REM DISCID A60A3B0C
REM COMMENT "ExactAudioCopy v1.0b3"
CATALOG 0886977873423
PERFORMER "ELO"
TITLE "Discovery"
FILE "ELO - Discovery.flac" WAVE
  TRACK 01 AUDIO
    TITLE "Shine A Little Love"
    PERFORMER "ELO"
    ISRC USSM17900004
    INDEX 01 00:00:00
  TRACK 02 AUDIO
    TITLE "Confusion"
    PERFORMER "ELO"
    ISRC USSM10015750
    INDEX 00 04:41:02
    INDEX 01 04:42:50
  TRACK 03 AUDIO
    TITLE "Need Her Love"
    PERFORMER "ELO"
    ISRC USSM10100832
    INDEX 00 08:24:07
    INDEX 01 08:25:20
  TRACK 04 AUDIO
    TITLE "The Diary Of Horace Wimp"
    PERFORMER "ELO"
    ISRC USSM10015735
    INDEX 00 13:36:32
    INDEX 01 13:37:15
  TRACK 05 AUDIO
    TITLE "Last Train To London"
    PERFORMER "ELO"
    ISRC USSM10015736
    INDEX 00 17:53:70
    INDEX 01 17:55:12
  TRACK 06 AUDIO
    TITLE "Midnight Blue"
    PERFORMER "ELO"
    ISRC USSM10100834
    INDEX 00 22:25:17
    INDEX 01 22:26:35
  TRACK 07 AUDIO
    TITLE "On The Run"
    PERFORMER "ELO"
    ISRC USSM10100833
    INDEX 00 26:44:10
    INDEX 01 26:45:47
  TRACK 08 AUDIO
    TITLE "Wishing"
    PERFORMER "ELO"
    ISRC USSM17900011
    INDEX 00 30:41:27
    INDEX 01 30:41:37
  TRACK 09 AUDIO
    TITLE "Don't Bring Me Down"
    PERFORMER "ELO"
    ISRC USSM10015734
    INDEX 00 34:55:00
    INDEX 01 34:55:12
  TRACK 10 AUDIO
    TITLE "On The Run (Home Demo)"
    PERFORMER "ELO"
    ISRC USSM10103270
    INDEX 00 38:58:40
    INDEX 01 39:01:42
  TRACK 11 AUDIO
    TITLE "Second Time Around (Home Demo)"
    PERFORMER "ELO"
    ISRC USSM10103271
    INDEX 00 40:01:02
    INDEX 01 40:03:00
  TRACK 12 AUDIO
    TITLE "Little Town Flirt"
    PERFORMER "ELO"
    ISRC USSM10103272
    INDEX 00 40:44:30
    INDEX 01 40:46:30

1981 - Time (CD 5)


продолжительность: 00:54:35

01. Prologue (01:15)
02. Twilight (03:41)
03. Yours Truly, 2095 (03:12)
04. Ticket To The Moon (04:07)
05. The Way Life's Meant To Be (04:38)
06. Another Heart Breaks (03:49)
07. Rain Is Falling (03:55)
08. From The End Of The World (03:16)
09. The Lights Go Down (03:33)
10. Here Is The News (03:49)
11. 21st Century Man (04:02)
12. Hold On Tight (03:06)
13. Epilogue (01:36)
14. The Bouncer (03:14)
15. When Time Stood Still (03:33)
16. Julie Don't Live Here (03:41)

лог создания рипа

[code]
Exact Audio Copy V1.0 beta 3 from 29. August 2011
Отчёт EAC об извлечении, выполненном 4. ноября 2011, 22:32
ELO / Time
Дисковод: Optiarc DVD RW AD-7283S Adapter: 4 ID: 0
Режим чтения : Достоверность
Использование точного потока : Да
Отключение кэша аудио : Да
Использование указателей C2 : Нет
Коррекция смещения при чтении : 48
Способность читать области Lead-in и Lead-out : Нет
Заполнение пропущенных сэмплов тишиной : Да
Удаление блоков с тишиной в начале и конце : Нет
При вычислениях CRC использовались нулевые сэмплы : Да
Интерфейс : Установленный внешний ASPI-интерфейс
Выходной формат : Внутренние WAV-операции
Формат сэмплов : 44.100 Гц; 16 бит; стерео
TOC извлечённого CD
Трек | Старт | Длительность | Начальный сектор | Конечный сектор
---------------------------------------------------------------------
1 | 0:00.00 | 1:15.72 | 0 | 5696
2 | 1:15.72 | 3:41.65 | 5697 | 22336
3 | 4:57.62 | 3:12.00 | 22337 | 36736
4 | 8:09.62 | 4:07.13 | 36737 | 55274
5 | 12:17.00 | 4:38.67 | 55275 | 76191
6 | 16:55.67 | 3:49.28 | 76192 | 93394
7 | 20:45.20 | 3:55.37 | 93395 | 111056
8 | 24:40.57 | 3:16.48 | 111057 | 125804
9 | 27:57.30 | 3:33.35 | 125805 | 141814
10 | 31:30.65 | 3:49.55 | 141815 | 159044
11 | 35:20.45 | 4:02.70 | 159045 | 177264
12 | 39:23.40 | 3:06.30 | 177265 | 191244
13 | 42:29.70 | 1:36.02 | 191245 | 198446
14 | 44:05.72 | 3:14.50 | 198447 | 213046
15 | 47:20.47 | 3:33.00 | 213047 | 229021
16 | 50:53.47 | 3:41.73 | 229022 | 245669
Характеристики диапазона извлечения и сообщения об ошибках
Выбранный диапазон
Имя файла C:\Users\Толик\Desktop\E.L.O. (Original Album Classics) 2010\ELO - Time.wav
Пиковый уровень 100.0 %
Скорость извлечения 4.0 X
Качество диапазона 100.0 %
CRC теста 2BFD445A
CRC копии 2BFD445A
Копирование... OK
Ошибок не произошло
AccurateRip: сводка
Трек 1 : извлечено точно (доверие 4) [A0DB74BA] (AR v1)
Трек 2 : извлечено точно (доверие 4) [BD59F348] (AR v1)
Трек 3 : извлечено точно (доверие 4) [DC82E9C6] (AR v1)
Трек 4 : извлечено точно (доверие 4) [89B282D1] (AR v1)
Трек 5 : извлечено точно (доверие 4) [01396746] (AR v1)
Трек 6 : извлечено точно (доверие 4) [AD17CC22] (AR v1)
Трек 7 : извлечено точно (доверие 4) [4E663C1B] (AR v1)
Трек 8 : извлечено точно (доверие 4) [29E725CA] (AR v1)
Трек 9 : извлечено точно (доверие 4) [6F1EDDBB] (AR v1)
Трек 10 : извлечено точно (доверие 4) [5EF27CBB] (AR v1)
Трек 11 : извлечено точно (доверие 4) [4069FD4C] (AR v1)
Трек 12 : извлечено точно (доверие 4) [445C861C] (AR v1)
Трек 13 : извлечено точно (доверие 4)